[2017] [欧美] [动作] [WEB-1080P] 雷神3:诸神黄昏 Thor.Ragnarok.2017.IMAX.1080p.DSNP.WEBRip.DDP5.1.Atmos.x264-MZABI 7.11G

d2mp4 2021-11-14

帖子完整标题:雷神3:诸神黄昏 Thor.Ragnarok.2017.IMAX.1080p.DSNP.WEBRip.DDP5.1.Atmos.x264-MZABI 7.11GB

第二MP4_D2mp4_雷神3:诸神黄昏 Thor.Ragnarok.2017.IMAX.1080p.DSNP.WEBRip.DDP5.1.Atmos.x264-MZABI 7.11G

◎译  名 雷神3:诸神黄昏/Thor 3/雷神3:诸神的黄昏/雷神奇侠3:诸神黄昏(港)/雷神索尔3:诸神黄昏(台)
◎片  名 Thor: Ragnarok
◎年  代 2017
◎产  地 美国
◎类  别 动作 / 奇幻 / 冒险
◎语  言 英语
◎上映日期 2017-10-24(英国) / 2017-11-03(美国/中国大陆)
◎豆瓣评分 7.4/10 from 375666 users
◎豆瓣链接 https://movie.douban.com/subject/25821634/
◎片  长 130分钟
◎导  演 塔伊加·维迪提 Taika Waititi
◎编  剧 埃里克·皮尔森 Eric Pearson / 克雷格·凯尔 Craig Kyle / 克里斯托弗·约斯特 Christopher Yost / 斯坦·李 Stan Lee / 拉里·利伯 Larry Lieber / 杰克·科比 Jack Kirby
◎主  演 克里斯·海姆斯沃斯 Chris Hemsworth
       汤姆·希德勒斯顿 Tom Hiddleston
       凯特·布兰切特 Cate Blanchett
       伊德里斯·艾尔巴 Idris Elba
       杰夫·高布伦 Jeff Goldblum
       泰莎·汤普森 Tessa Thompson
       卡尔·厄本 Karl Urban
       马克·鲁弗洛 Mark Ruffalo
       安东尼·霍普金斯 Anthony Hopkins
       本尼迪克特·康伯巴奇 Benedict Cumberbatch
       塔伊加·维迪提 Taika Waititi
       瑞切尔·豪斯 Rachel House
       克兰西·布朗 Clancy Brown
       浅野忠信 Tadanobu Asano
       雷·史蒂文森 Ray Stevenson
       扎克瑞·莱维 Zachary Levi
       卢克·海姆斯沃斯 Luke Hemsworth
       马特·达蒙 Matt Damon
       山姆·尼尔 Sam Neill
       夏洛特·尼克道 Charlotte Nicdao
       斯坦·李 Stan Lee
       史蒂文·奥利弗 Steven Oliver
       天海祐希 Yuki Amami
       乔治亚·布利扎德 Georgia Blizzard
       罗勃·梅耶斯 Rob Mayes
       科恩·霍洛维 Cohen Holloway

◎标  签 漫威 | 雷神 | 超级英雄 | 美国 | Marvel | 科幻 | 2017 | 漫画改编

◎简  介

  在“索科维亚战役”两年后,雷神索尔(克里斯·海姆斯沃斯 Chris Hemsworth 饰)识破了洛基(汤姆·希德勒斯顿 Tom Hiddleston 饰)的伪装,辗转找到了被放逐到地球的奥丁(安东尼·霍普金斯 Anthony Hopkins 饰)。然而垂死的奥丁却告知两个儿子,“诸神的黄昏”已经开始,曾遭到奥丁封禁的死亡女神海拉(凯特·布兰切特 Cate Blanchett 饰)即将重返阿斯加德。与海拉的初次对决中,索尔失去了雷神之锤,他和洛基也被打落至混乱不堪的萨卡星。在萨卡的决斗场上,索尔重逢失踪许久的绿巨人,也见到了曾从海拉魔爪下逃得一生的女武神。
  
  历经千辛万苦,索尔和战友们重返阴云密布的阿斯加德,去正视这注定要到来的“诸神的黄昏”……

◎获奖情况

  第27届MTV电影奖 ?(2018)
  MTV电影奖最佳打斗(提名) 马克·鲁弗洛?/?克里斯·海姆斯沃斯
  MTV电影奖最佳抢镜(提名) 塔伊加·维迪提
  
  第20届美国服装设计工会奖 ?(2018)
  科幻/奇幻题材电影最佳服装设计(提名) 玛耶斯·C·鲁贝奥
  
  第16届美国视觉效果协会奖 ?(2018)
  最佳电影虚拟摄影(提名)
  最佳电影视觉效果合成(提名)
  
  第23届美国评论家选择电影奖 ?(2018)
  喜剧片最佳男主角(提名) 克里斯·海姆斯沃斯
  最佳动作片(提名)
  最佳视觉效果(提名)
  
  第4届豆瓣电影年度榜单 ?(2017)
  评分最高的科幻/动作片(提名)
  11月最受关注电影(提名)
  
  第3届豆瓣电影年度榜单 ?(2016)
  最值得期待的外语电影(提名)

Video
ID                                       : 1
Format                                   : AVC
Format/Info                              : Advanced Video Codec
Format profile                           : [email protected]
Format settings                          : CABAC / 4 Ref Frames
Format settings, CABAC                   : Yes
Format settings, Reference frames        : 4 frames
Codec ID                                 : V_MPEG4/ISO/AVC
Duration                                 : 2 h 10 min
Bit rate mode                            : Variable
Bit rate                                 : 7 027 kb/s
Maximum bit rate                         : 12.7 Mb/s
Width                                    : 1 920 pixels
Height                                   : 1 080 pixels
Display aspect ratio                     : 16:9
Frame rate mode                          : Constant
Frame rate                               : 23.976 (24000/1001/189150) FPS
Color space                              : YUV
Chroma subsampling                       : 4:2:0
Bit depth                                : 8 bits
Scan type                                : Progressive
Bits/(Pixel*Frame)                       : 0.141
Stream size                              : 6.40 GiB (90%)
Default                                  : Yes
Forced                                   : No
Color range                              : Limited
Color primaries                          : BT.709
Transfer characteristics                 : BT.709
Matrix coefficients                      : BT.709

Audio
ID                                       : 2
Format                                   : E-AC-3 JOC
Format/Info                              : Enhanced AC-3 with Joint Object Coding
Commercial name                          : Dolby Digital Plus with Dolby Atmos
Codec ID                                 : A_EAC3
Duration                                 : 2 h 10 min
Bit rate mode                            : Constant
Bit rate                                 : 768 kb/s
Channel(s)                               : 6 channels
Channel layout                           : L R C LFE Ls Rs
Sampling rate                            : 48.0 kHz
Frame rate                               : 31.250 FPS (1536 SPF)
Compression mode                         : Lossy
Stream size                              : 717 MiB (10%)
Title                                    : English
Language                                 : English
Service kind                             : Complete Main
Default                                  : No
Forced                                   : No
Complexity index                         : 16
Number of dynamic objects                : 15
Bed channel count                        : 1 channel
Bed channel configuration                : LFE

Text #1
ID                                       : 3
Format                                   : UTF-8
Codec ID                                 : S_TEXT/UTF8
Codec ID/Info                            : UTF-8 Plain Text
Duration                                 : 2 h 9 min
Bit rate                                 : 41 b/s
Count of elements                        : 1558
Stream size                              : 39.3 KiB (0%)
Title                                    : Chinese Simplified
Language                                 : Chinese
Default                                  : No
Forced                                   : No

Text #2
ID                                       : 4
Format                                   : UTF-8
Codec ID                                 : S_TEXT/UTF8
Codec ID/Info                            : UTF-8 Plain Text
Duration                                 : 2 h 9 min
Bit rate                                 : 39 b/s
Count of elements                        : 1623
Stream size                              : 37.2 KiB (0%)
Title                                    : Chinese Traditional
Language                                 : Chinese
Default                                  : No
Forced                                   : No

Text #3
ID                                       : 5
Format                                   : UTF-8
Codec ID                                 : S_TEXT/UTF8
Codec ID/Info                            : UTF-8 Plain Text
Duration                                 : 2 h 9 min
Bit rate                                 : 43 b/s
Count of elements                        : 1121
Stream size                              : 41.1 KiB (0%)
Title                                    : Danish
Language                                 : Danish
Default                                  : No
Forced                                   : No

Text #4
ID                                       : 6
Format                                   : UTF-8
Codec ID                                 : S_TEXT/UTF8
Codec ID/Info                            : UTF-8 Plain Text
Duration                                 : 2 h 9 min
Bit rate                                 : 44 b/s
Count of elements                        : 1161
Stream size                              : 42.2 KiB (0%)
Title                                    : Dutch
Language                                 : Dutch
Default                                  : No
Forced                                   : No

Text #5
ID                                       : 7
Format                                   : UTF-8
Codec ID                                 : S_TEXT/UTF8
Codec ID/Info                            : UTF-8 Plain Text
Duration                                 : 2 h 10 min
Bit rate                                 : 56 b/s
Count of elements                        : 2081
Stream size                              : 54.1 KiB (0%)
Title                                    : English [SDH]
Language                                 : English
Default                                  : No
Forced                                   : No

Text #6
ID                                       : 8
Format                                   : UTF-8
Codec ID                                 : S_TEXT/UTF8
Codec ID/Info                            : UTF-8 Plain Text
Duration                                 : 2 h 9 min
Bit rate                                 : 51 b/s
Count of elements                        : 1776
Stream size                              : 48.4 KiB (0%)
Title                                    : English
Language                                 : English
Default                                  : No
Forced                                   : No

Text #7
ID                                       : 9
Format                                   : UTF-8
Codec ID                                 : S_TEXT/UTF8
Codec ID/Info                            : UTF-8 Plain Text
Duration                                 : 2 h 9 min
Bit rate                                 : 46 b/s
Count of elements                        : 1567
Stream size                              : 44.4 KiB (0%)
Title                                    : Finnish
Language                                 : Finnish
Default                                  : No
Forced                                   : No

Text #8
ID                                       : 10
Format                                   : UTF-8
Codec ID                                 : S_TEXT/UTF8
Codec ID/Info                            : UTF-8 Plain Text
Duration                                 : 2 h 9 min
Bit rate                                 : 50 b/s
Count of elements                        : 1588
Stream size                              : 47.8 KiB (0%)
Title                                    : French Canadian
Language                                 : French
Default                                  : No
Forced                                   : No

Text #9
ID                                       : 11
Format                                   : UTF-8
Codec ID                                 : S_TEXT/UTF8
Codec ID/Info                            : UTF-8 Plain Text
Duration                                 : 2 h 9 min
Bit rate                                 : 42 b/s
Count of elements                        : 1563
Stream size                              : 40.6 KiB (0%)
Title                                    : French
Language                                 : French
Default                                  : No
Forced                                   : No

Text #10
ID                                       : 12
Format                                   : UTF-8
Codec ID                                 : S_TEXT/UTF8
Codec ID/Info                            : UTF-8 Plain Text
Duration                                 : 2 h 9 min
Bit rate                                 : 51 b/s
Count of elements                        : 1566
Stream size                              : 49.1 KiB (0%)
Title                                    : German
Language                                 : German
Default                                  : No
Forced                                   : No

Text #11
ID                                       : 13
Format                                   : UTF-8
Codec ID                                 : S_TEXT/UTF8
Codec ID/Info                            : UTF-8 Plain Text
Duration                                 : 2 h 9 min
Bit rate                                 : 52 b/s
Count of elements                        : 1566
Stream size                              : 49.3 KiB (0%)
Title                                    : Icelandic
Language                                 : Icelandic
Default                                  : No
Forced                                   : No

Text #12
ID                                       : 14
Format                                   : UTF-8
Codec ID                                 : S_TEXT/UTF8
Codec ID/Info                            : UTF-8 Plain Text
Duration                                 : 2 h 9 min
Bit rate                                 : 50 b/s
Count of elements                        : 1601
Stream size                              : 47.8 KiB (0%)
Title                                    : Italian
Language                                 : Italian
Default                                  : No
Forced                                   : No

Text #13
ID                                       : 15
Format                                   : UTF-8
Codec ID                                 : S_TEXT/UTF8
Codec ID/Info                            : UTF-8 Plain Text
Duration                                 : 2 h 9 min
Bit rate                                 : 37 b/s
Count of elements                        : 1478
Stream size                              : 36.0 KiB (0%)
Title                                    : Japanese
Language                                 : Japanese
Default                                  : No
Forced                                   : No

Text #14
ID                                       : 16
Format                                   : UTF-8
Codec ID                                 : S_TEXT/UTF8
Codec ID/Info                            : UTF-8 Plain Text
Duration                                 : 2 h 9 min
Bit rate                                 : 44 b/s
Count of elements                        : 1556
Stream size                              : 42.5 KiB (0%)
Title                                    : Korean
Language                                 : Korean
Default                                  : No
Forced                                   : No

Text #15
ID                                       : 17
Format                                   : UTF-8
Codec ID                                 : S_TEXT/UTF8
Codec ID/Info                            : UTF-8 Plain Text
Duration                                 : 2 h 9 min
Bit rate                                 : 44 b/s
Count of elements                        : 1566
Stream size                              : 42.0 KiB (0%)
Title                                    : Norwegian
Language                                 : Norwegian
Default                                  : No
Forced                                   : No

Text #16
ID                                       : 18
Format                                   : UTF-8
Codec ID                                 : S_TEXT/UTF8
Codec ID/Info                            : UTF-8 Plain Text
Duration                                 : 2 h 9 min
Bit rate                                 : 47 b/s
Count of elements                        : 1572
Stream size                              : 44.9 KiB (0%)
Title                                    : Brazilian Portuguese
Language                                 : Portuguese
Default                                  : No
Forced                                   : No

Text #17
ID                                       : 19
Format                                   : UTF-8
Codec ID                                 : S_TEXT/UTF8
Codec ID/Info                            : UTF-8 Plain Text
Duration                                 : 2 h 9 min
Bit rate                                 : 49 b/s
Count of elements                        : 1574
Stream size                              : 47.0 KiB (0%)
Title                                    : Portuguese
Language                                 : Portuguese
Default                                  : No
Forced                                   : No

Text #18
ID                                       : 20
Format                                   : UTF-8
Codec ID                                 : S_TEXT/UTF8
Codec ID/Info                            : UTF-8 Plain Text
Duration                                 : 2 h 9 min
Bit rate                                 : 49 b/s
Count of elements                        : 1567
Stream size                              : 47.3 KiB (0%)
Title                                    : Spanish
Language                                 : Spanish
Default                                  : No
Forced                                   : No

Text #19
ID                                       : 21
Format                                   : UTF-8
Codec ID                                 : S_TEXT/UTF8
Codec ID/Info                            : UTF-8 Plain Text
Duration                                 : 2 h 9 min
Bit rate                                 : 46 b/s
Count of elements                        : 1564
Stream size                              : 44.0 KiB (0%)
Title                                    : European Spanish
Language                                 : Spanish
Default                                  : No
Forced                                   : No

Text #20
ID                                       : 22
Format                                   : UTF-8
Codec ID                                 : S_TEXT/UTF8
Codec ID/Info                            : UTF-8 Plain Text
Duration                                 : 2 h 9 min
Bit rate                                 : 43 b/s
Count of elements                        : 1056
Stream size                              : 41.2 KiB (0%)
Title                                    : Swedish
Language                                 : Swedish
Default                                  : No
Forced                                   : No

Text #21
ID                                       : 23
Format                                   : UTF-8
Codec ID                                 : S_TEXT/UTF8
Codec ID/Info                            : UTF-8 Plain Text
Duration                                 : 2 h 9 min
Bit rate                                 : 33 b/s
Count of elements                        : 1567
Stream size                              : 32.0 KiB (0%)
Title                                    : Mandarin (Guoyu)
Language                                 : Chinese
Default                                  : No
Forced                                   : No


第二MP4_D2mp4_雷神3:诸神黄昏 Thor.Ragnarok.2017.IMAX.1080p.DSNP.WEBRip.DDP5.1.Atmos.x264-MZABI 7.11G第二MP4_D2mp4_雷神3:诸神黄昏 Thor.Ragnarok.2017.IMAX.1080p.DSNP.WEBRip.DDP5.1.Atmos.x264-MZABI 7.11G第二MP4_D2mp4_雷神3:诸神黄昏 Thor.Ragnarok.2017.IMAX.1080p.DSNP.WEBRip.DDP5.1.Atmos.x264-MZABI 7.11G


上传的附件:
最新回复 (0)
返回
本站所有资源均收集自互联网,没有提供影片资源存储, 也未参与录制、上传,若本站收录的资源无意侵犯了您的权益, 请联系邮箱:nsfhetuafkey#gmail.com(#[email protected])