[2022] [欧美] [悬疑] [x265-4K-HDR] 亲爱的别担心 Dont.Worry.Darling.2022.2160p.UHD.BluRay.x265.10bit.HDR.DDP5.1.Atmos-RARBG 7.53 GB

d2mp4 2月前

第二MP4_D2mp4_亲爱的别担心 Dont.Worry.Darling.2022.2160p.UHD.BluRay.x265.10bit.HDR.DDP5.1.Atmos-RARBG 7.53 GB

◎片  名 亲爱的别担心 Don't Worry Darling / 别担心亲爱的(港/台)
◎年  代 2022
◎产  地 美国
◎类  别 剧情 / 悬疑 / 惊悚
◎语  言 英语
◎上映日期 2022-09-05(威尼斯电影节) / 2022-09-23(美国)
◎IMDb评分  6.2/10 from 69341 users
◎IMDb链接  https://www.imdb.com/title/tt10731256/
◎豆瓣评分 6.4/10 from 6331 users
◎豆瓣链接 https://movie.douban.com/subject/34968378/
◎片  长 122分钟
◎导  演 奥利维亚·王尔德 Olivia Wilde
◎编  剧 凯瑟琳·西尔伯曼 Katie Silberman
       凯莉·凡·戴克 Carey Van Dyke
       肖恩·范·戴克 Shane Van Dyke
◎主  演 弗洛伦丝·皮尤 Florence Pugh
       哈里·斯泰尔斯 Harry Styles
       克里斯·派恩 Chris Pine
       奥利维亚·王尔德 Olivia Wilde
       琪琪·莱恩 KiKi Layne
       嘉玛·陈 Gemma Chan
       尼克·克罗尔 Nick Kroll
       西德尼·钱德勒 Sydney Chandler
       凯特·贝兰特 Kate Berlant
       阿西夫·阿里 Asif Ali
       道格拉斯·史密斯 Douglas Smith
       蒂莫西·西蒙斯 Timothy Simons
       阿里尔·斯泰切尔 Ari'el Stachel
       史蒂夫·伯格 Steve Berg
       黛西·苏戴奇斯 Daisy Sudeikis
       马塞罗·莱耶斯 Marcello Reyes
       梦露·克莱恩 Monroe Cline
       蒂塔·万·提斯 Dita Von Teese
       泰勒·梅 Taylor May
       莱克茜·休姆 Lexy Hulme
       提娅.利泽伍德 Toiya Leatherwood

◎简  介

  这部心理惊悚题材的影片故事设置在1950年代加州沙漠里的一个与世隔绝的乌托邦式群体当中,讲述一位家庭主妇(Pugh饰)意外地发现了看似平静的生活中的恐怖秘密。

◎获奖情况

  第70届圣塞巴斯蒂安国际电影节 (2022)
  观众选择奖(提名)
  奥利维亚·王尔德



Video
ID           : 1
Format       : HEVC
Format/Info      : High Efficiency Video Coding
Format profile       : Main [email protected]@Main
HDR format       : SMPTE ST 2086, HDR10 compatible
Codec ID         : V_MPEGH/ISO/HEVC
Duration         : 2 h 2 min
Bit rate         : 8 019 kb/s
Width        : 3 840 pixels
Height       : 1 604 pixels
Display aspect ratio     : 2.40:1
Frame rate mode      : Constant
Frame rate       : 23.976 (24000/1001) FPS
Color space      : YUV
Chroma subsampling       : 4:2:0
Bit depth        : 10 bits
Bits/(Pixel*Frame)       : 0.054
Stream size      : 6.87 GiB (91%)
Writing library      : x265 3.5+rarbg-HDR-38-20255e6:[Linux][clang 16.0.0][64 bit] 10bit
Encoding settings        : cpuid=1111039 / frame-threads=6 / wpp / no-pmode / no-pme / no-psnr / no-ssim / log-level=2 / input-csp=1 / input-res=3840x1604 / interlace=0 / total-frames=0 / level-idc=51 / high-tier=1 / uhd-bd=0 / ref=4 / no-allow-non-conformance / repeat-headers / annexb / aud / no-eob / no-eos / no-hrd / info / hash=0 / no-temporal-layers / no-open-gop / min-keyint=1 / keyint=24 / gop-lookahead=0 / bframes=4 / b-adapt=2 / b-pyramid / bframe-bias=0 / rc-lookahead=25 / lookahead-slices=4 / scenecut=40 / no-hist-scenecut / radl=0 / no-splice / no-intra-refresh / ctu=64 / min-cu-size=8 / rect / no-amp / max-tu-size=32 / tu-inter-depth=1 / tu-intra-depth=1 / limit-tu=0 / rdoq-level=2 / dynamic-rd=0.00 / no-ssim-rd / signhide / no-tskip / nr-intra=0 / nr-inter=0 / no-constrained-intra / strong-intra-smoothing / max-merge=3 / limit-refs=3 / no-limit-modes / me=3 / subme=3 / merange=57 / temporal-mvp / no-frame-dup / no-hme / weightp / no-weightb / no-analyze-src-pics / deblock=0:0 / no-sao / no-sao-non-deblock / rd=4 / selective-sao=0 / no-early-skip / rskip / no-fast-intra / no-tskip-fast / no-cu-lossless / no-b-intra / no-splitrd-skip / rdpenalty=0 / psy-rd=2.00 / psy-rdoq=1.00 / no-rd-refine / no-lossless / cbqpoffs=0 / crqpoffs=0 / rc=abr / bitrate=8000 / qcomp=0.60 / qpstep=4 / stats-write=0 / stats-read=2 / cplxblur=20.0 / qblur=0.5 / ipratio=1.40 / pbratio=1.30 / aq-mode=1 / aq-strength=1.00 / cutree / zone-count=0 / no-strict-cbr / qg-size=32 / no-rc-grain / qpmax=69 / qpmin=0 / no-const-vbv / sar=1 / overscan=0 / videoformat=5 / range=0 / colorprim=9 / transfer=16 / colormatrix=9 / chromaloc=0 / display-window=0 / master-display=G(8500,39850)B(6550,2300)R(35400,14600)WP(15635,16450)L(10000000,1) / cll=277,101 / min-luma=0 / max-luma=1023 / log2-max-poc-lsb=8 / vui-timing-info / vui-hrd-info / slices=1 / no-opt-qp-pps / no-opt-ref-list-length-pps / no-multi-pass-opt-rps / scenecut-bias=0.05 / hist-threshold=0.03 / no-opt-cu-delta-qp / no-aq-motion / hdr10 / hdr10-opt / no-dhdr10-opt / no-idr-recovery-sei / analysis-reuse-level=0 / analysis-save-reuse-level=0 / analysis-load-reuse-level=0 / scale-factor=0 / refine-intra=0 / refine-inter=0 / refine-mv=1 / refine-ctu-distortion=0 / no-limit-sao / ctu-info=0 / no-lowpass-dct / refine-analysis-type=0 / copy-pic=1 / max-ausize-factor=1.0 / no-dynamic-refine / no-single-sei / no-hevc-aq / no-svt / no-field / qp-adaptation-range=1.00 / scenecut-aware-qp=0conformance-window-offsets / right=0 / bottom=0 / decoder-max-rate=0 / no-vbv-live-multi-pass
Default          : Yes
Forced       : No
Color range      : Limited
Color primaries      : BT.2020
Transfer characteristics     : PQ
Matrix coefficients      : BT.2020 non-constant
Mastering display color primaries    : BT.2020
Mastering display luminance      : min: 0.0001 cd/m2, max: 1000 cd/m2
Maximum Content Light Level      : 277 cd/m2
Maximum Frame-Average Light Level    : 101 cd/m2

Audio
ID           : 2
Format       : E-AC-3 JOC
Format/Info      : Enhanced AC-3 with Joint Object Coding
Commercial name      : Dolby Digital Plus with Dolby Atmos
Codec ID         : A_EAC3
Duration         : 2 h 2 min
Bit rate mode        : Constant
Bit rate         : 768 kb/s
Channel(s)       : 6 channels
Channel layout       : L R C LFE Ls Rs
Sampling rate        : 48.0 kHz
Frame rate       : 31.250 FPS (1536 SPF)
Compression mode     : Lossy
Delay relative to video      : 8 ms
Stream size      : 674 MiB (9%)
Title        : English DDP Atmos 5.1
Language         : English
Service kind         : Complete Main
Default          : Yes
Forced       : No
Complexity index     : 16
Number of dynamic objects    : 15
Bed channel count        : 1 channel
Bed channel configuration    : LFE

Text #1
ID           : 3
Format       : UTF-8
Codec ID         : S_TEXT/UTF8
Codec ID/Info        : UTF-8 Plain Text
Duration         : 1 h 54 min
Bit rate         : 50 b/s
Frame rate       : 0.212 FPS
Count of elements        : 1460
Stream size      : 42.2 KiB (0%)
Title        : English SRT
Language         : English
Default          : Yes
Forced       : No

Text #2
ID           : 4
Format       : UTF-8
Codec ID         : S_TEXT/UTF8
Codec ID/Info        : UTF-8 Plain Text
Duration         : 1 h 58 min
Bit rate         : 58 b/s
Frame rate       : 0.240 FPS
Count of elements        : 1707
Stream size      : 51.1 KiB (0%)
Title        : English SDH SRT
Language         : English
Default          : No
Forced       : No

Menu
00:00:00.000         : en:Chapter 01
00:09:55.636         : en:Chapter 02
00:18:01.538         : en:Chapter 03
00:27:59.928         : en:Chapter 04
00:35:26.165         : en:Chapter 05
00:45:20.801         : en:Chapter 06
00:55:13.810         : en:Chapter 07
01:04:20.857         : en:Chapter 08
01:12:40.481         : en:Chapter 09
01:21:08.405         : en:Chapter 10
01:30:43.771         : en:Chapter 11
01:39:06.398         : en:Chapter 12
01:48:34.591         : en:Chapter 13
01:55:43.519         : en:Chapter 14



第二MP4_D2mp4_亲爱的别担心 Dont.Worry.Darling.2022.2160p.UHD.BluRay.x265.10bit.HDR.DDP5.1.Atmos-RARBG 7.53 GB
第二MP4_D2mp4_亲爱的别担心 Dont.Worry.Darling.2022.2160p.UHD.BluRay.x265.10bit.HDR.DDP5.1.Atmos-RARBG 7.53 GB
第二MP4_D2mp4_亲爱的别担心 Dont.Worry.Darling.2022.2160p.UHD.BluRay.x265.10bit.HDR.DDP5.1.Atmos-RARBG 7.53 GB

磁力链接

magnet:?xt=urn:btih:0ee6c3b3da6bdb82896562c72c8337b6c81a2e20

上传的附件:
最新回复 (0)
返回
本站所有资源均收集自互联网,没有提供影片资源存储, 也未参与录制、上传,若本站收录的资源无意侵犯了您的权益, 请联系邮箱:nsfhetuafkey#gmail.com(#[email protected])