[2022] [欧美] [惊悚] [x265-4K-HDR] 黑蟹行动 Black.Crab.2022.SWEDISH.2160p.NF.WEB-DL.x265.10bit.HDR.DDP5.1.Atmos-SiC 11.83 GB

d2mp4 2月前

第二MP4_D2mp4_黑蟹行动 Black.Crab.2022.SWEDISH.2160p.NF.WEB-DL.x265.10bit.HDR.DDP5.1.Atmos-SiC 11.83 GB

◎片  名 黑蟹行动 Svart krabba / 黑蟹行动:无尽寒冬(台) / Black Crab
◎年  代 2022
◎产  地 瑞典
◎类  别 动作 / 惊悚
◎语  言 瑞典语
◎上映日期 2022-02-03(哥德堡电影节) / 2022-03-18(瑞典)
◎IMDb评分  5.7/10 from 21128 users
◎IMDb链接  https://www.imdb.com/title/tt6708668/
◎豆瓣评分 5.7/10 from 4292 users
◎豆瓣链接 https://movie.douban.com/subject/35243106/
◎片  长 114分钟
◎导  演 亚当·伯格 Adam Berg
◎编  剧 亚当·伯格 Adam Berg
       佩尔·雷德斯特罗姆 Pelle Rådström
◎主  演 劳米·拉佩斯 Noomi Rapace
       雅各布·奥福特布罗 Jakob Oftebro
       达尔·萨利姆 Dar Salim
       阿达兰·埃斯迈利 Ardalan Esmaili
       Aliette Opheim Aliette Opheim
       埃里克·恩格 Erik Enge

◎简  介

  《黑蟹行动》是一部瑞典动作惊悚片,背景设定在因战争而四分五裂的末日后世界。在一个漫长而严酷的冬天,六名士兵开始了一项秘密任务 — 冒着生命危险穿越冰冻的群岛运送一个据说能结束战争的包裹。当他们进入敌人的领地时,他们不知道前方会有什么危险,也不知道自己可以信任谁(如果有的话)。但对于速滑运动员出身的士兵卡罗琳·埃德来说,这个任务完全是另一回事。《黑蟹行动》由劳米·拉佩斯主演,亚当·伯格担任导演,讲述了六名士兵为了结束摧毁他们生活的战争而执行一项艰巨任务。



Video
ID           : 1
Format       : HEVC
Format/Info      : High Efficiency Video Coding
Format profile       : Main [email protected]@Main
HDR format       : Dolby Vision, Version 1.0, dvhe.08.06, BL+RPU, HDR10 compatible / SMPTE ST 2086, HDR10 compatible
Codec ID         : V_MPEGH/ISO/HEVC
Duration         : 1 h 52 min
Bit rate         : 14.2 Mb/s
Width        : 3 840 pixels
Height       : 2 160 pixels
Display aspect ratio     : 16:9
Frame rate mode      : Constant
Frame rate       : 24.000 FPS
Color space      : YUV
Chroma subsampling       : 4:2:0 (Type 2)
Bit depth        : 10 bits
Bits/(Pixel*Frame)       : 0.072
Stream size      : 11.2 GiB (95%)
Default          : Yes
Forced       : No
Color range      : Limited
Color primaries      : BT.2020
Transfer characteristics     : PQ
Matrix coefficients      : BT.2020 non-constant
Mastering display color primaries    : Display P3
Mastering display luminance      : min: 0.0001 cd/m2, max: 1000 cd/m2
Maximum Content Light Level      : 1086 cd/m2
Maximum Frame-Average Light Level    : 293 cd/m2

Audio
ID           : 2
Format       : E-AC-3 JOC
Format/Info      : Enhanced AC-3 with Joint Object Coding
Commercial name      : Dolby Digital Plus with Dolby Atmos
Codec ID         : A_EAC3
Duration         : 1 h 52 min
Bit rate mode        : Constant
Bit rate         : 768 kb/s
Channel(s)       : 6 channels
Channel layout       : L R C LFE Ls Rs
Sampling rate        : 48.0 kHz
Frame rate       : 31.250 FPS (1536 SPF)
Compression mode     : Lossy
Stream size      : 620 MiB (5%)
Language         : Swedish
Service kind         : Complete Main
Default          : Yes
Forced       : No
Complexity index     : 16
Number of dynamic objects    : 15
Bed channel count        : 1 channel
Bed channel configuration    : LFE

Text #1
ID           : 3
Format       : UTF-8
Codec ID         : S_TEXT/UTF8
Codec ID/Info        : UTF-8 Plain Text
Duration         : 1 h 46 min
Bit rate         : 33 b/s
Frame rate       : 0.154 FPS
Count of elements        : 980
Stream size      : 26.4 KiB (0%)
Language         : English
Default          : Yes
Forced       : No

Text #2
ID           : 4
Format       : UTF-8
Codec ID         : S_TEXT/UTF8
Codec ID/Info        : UTF-8 Plain Text
Duration         : 1 h 52 min
Bit rate         : 57 b/s
Frame rate       : 0.141 FPS
Count of elements        : 954
Stream size      : 47.0 KiB (0%)
Language         : Arabic
Default          : No
Forced       : No

Text #3
ID           : 5
Format       : UTF-8
Codec ID         : S_TEXT/UTF8
Codec ID/Info        : UTF-8 Plain Text
Duration         : 1 h 47 min
Bit rate         : 32 b/s
Frame rate       : 0.149 FPS
Count of elements        : 963
Stream size      : 25.4 KiB (0%)
Title        : Simplified
Language         : Chinese
Default          : No
Forced       : No

Text #4
ID           : 6
Format       : UTF-8
Codec ID         : S_TEXT/UTF8
Codec ID/Info        : UTF-8 Plain Text
Duration         : 1 h 52 min
Bit rate         : 29 b/s
Frame rate       : 0.142 FPS
Count of elements        : 962
Stream size      : 24.5 KiB (0%)
Title        : Traditional
Language         : Chinese
Default          : No
Forced       : No

Text #5
ID           : 7
Format       : UTF-8
Codec ID         : S_TEXT/UTF8
Codec ID/Info        : UTF-8 Plain Text
Duration         : 1 h 52 min
Bit rate         : 25 b/s
Frame rate       : 0.140 FPS
Count of elements        : 948
Stream size      : 20.8 KiB (0%)
Language         : Croatian
Default          : No
Forced       : No

Text #6
ID           : 8
Format       : UTF-8
Codec ID         : S_TEXT/UTF8
Codec ID/Info        : UTF-8 Plain Text
Duration         : 1 h 47 min
Bit rate         : 29 b/s
Frame rate       : 0.141 FPS
Count of elements        : 909
Stream size      : 23.2 KiB (0%)
Language         : Czech
Default          : No
Forced       : No

Text #7
ID           : 9
Format       : UTF-8
Codec ID         : S_TEXT/UTF8
Codec ID/Info        : UTF-8 Plain Text
Duration         : 1 h 52 min
Bit rate         : 27 b/s
Frame rate       : 0.120 FPS
Count of elements        : 809
Stream size      : 22.3 KiB (0%)
Language         : Danish
Default          : No
Forced       : No

Text #8
ID           : 10
Format       : UTF-8
Codec ID         : S_TEXT/UTF8
Codec ID/Info        : UTF-8 Plain Text
Duration         : 1 h 52 min
Bit rate         : 26 b/s
Frame rate       : 0.135 FPS
Count of elements        : 915
Stream size      : 22.0 KiB (0%)
Language         : Dutch
Default          : No
Forced       : No

Text #9
ID           : 11
Format       : UTF-8
Codec ID         : S_TEXT/UTF8
Codec ID/Info        : UTF-8 Plain Text
Duration         : 1 h 52 min
Bit rate         : 29 b/s
Frame rate       : 0.124 FPS
Count of elements        : 835
Stream size      : 24.1 KiB (0%)
Language         : Finnish
Default          : No
Forced       : No

Text #10
ID           : 12
Format       : UTF-8
Codec ID         : S_TEXT/UTF8
Codec ID/Info        : UTF-8 Plain Text
Duration         : 1 h 52 min
Bit rate         : 28 b/s
Frame rate       : 0.138 FPS
Count of elements        : 930
Stream size      : 23.5 KiB (0%)
Language         : French
Default          : No
Forced       : No

Text #11
ID           : 13
Format       : UTF-8
Codec ID         : S_TEXT/UTF8
Codec ID/Info        : UTF-8 Plain Text
Duration         : 1 h 47 min
Bit rate         : 31 b/s
Frame rate       : 0.147 FPS
Count of elements        : 952
Stream size      : 25.1 KiB (0%)
Language         : German
Default          : No
Forced       : No

Text #12
ID           : 14
Format       : UTF-8
Codec ID         : S_TEXT/UTF8
Codec ID/Info        : UTF-8 Plain Text
Duration         : 1 h 52 min
Bit rate         : 47 b/s
Frame rate       : 0.138 FPS
Count of elements        : 931
Stream size      : 39.4 KiB (0%)
Language         : Greek
Default          : No
Forced       : No

Text #13
ID           : 15
Format       : UTF-8
Codec ID         : S_TEXT/UTF8
Codec ID/Info        : UTF-8 Plain Text
Duration         : 1 h 52 min
Bit rate         : 47 b/s
Frame rate       : 0.139 FPS
Count of elements        : 936
Stream size      : 39.4 KiB (0%)
Language         : Hebrew
Default          : No
Forced       : No

Text #14
ID           : 16
Format       : UTF-8
Codec ID         : S_TEXT/UTF8
Codec ID/Info        : UTF-8 Plain Text
Duration         : 1 h 47 min
Bit rate         : 29 b/s
Frame rate       : 0.148 FPS
Count of elements        : 955
Stream size      : 23.7 KiB (0%)
Language         : Hungarian
Default          : No
Forced       : No

Text #15
ID           : 17
Format       : UTF-8
Codec ID         : S_TEXT/UTF8
Codec ID/Info        : UTF-8 Plain Text
Duration         : 1 h 52 min
Bit rate         : 29 b/s
Frame rate       : 0.137 FPS
Count of elements        : 925
Stream size      : 24.0 KiB (0%)
Language         : Indonesian
Default          : No
Forced       : No

Text #16
ID           : 18
Format       : UTF-8
Codec ID         : S_TEXT/UTF8
Codec ID/Info        : UTF-8 Plain Text
Duration         : 1 h 52 min
Bit rate         : 27 b/s
Frame rate       : 0.141 FPS
Count of elements        : 949
Stream size      : 22.9 KiB (0%)
Language         : Italian
Default          : No
Forced       : No

Text #17
ID           : 19
Format       : UTF-8
Codec ID         : S_TEXT/UTF8
Codec ID/Info        : UTF-8 Plain Text
Duration         : 1 h 52 min
Bit rate         : 29 b/s
Frame rate       : 0.149 FPS
Count of elements        : 1003
Stream size      : 24.1 KiB (0%)
Language         : Japanese
Default          : No
Forced       : No

Text #18
ID           : 20
Format       : UTF-8
Codec ID         : S_TEXT/UTF8
Codec ID/Info        : UTF-8 Plain Text
Duration         : 1 h 52 min
Bit rate         : 39 b/s
Frame rate       : 0.151 FPS
Count of elements        : 1017
Stream size      : 32.7 KiB (0%)
Language         : Korean
Default          : No
Forced       : No

Text #19
ID           : 21
Format       : UTF-8
Codec ID         : S_TEXT/UTF8
Codec ID/Info        : UTF-8 Plain Text
Duration         : 1 h 47 min
Bit rate         : 29 b/s
Frame rate       : 0.145 FPS
Count of elements        : 935
Stream size      : 23.6 KiB (0%)
Language         : Malay
Default          : No
Forced       : No

Text #20
ID           : 22
Format       : UTF-8
Codec ID         : S_TEXT/UTF8
Codec ID/Info        : UTF-8 Plain Text
Duration         : 1 h 47 min
Bit rate         : 28 b/s
Frame rate       : 0.143 FPS
Count of elements        : 926
Stream size      : 22.8 KiB (0%)
Language         : Norwegian Bokmal
Default          : No
Forced       : No

Text #21
ID           : 23
Format       : UTF-8
Codec ID         : S_TEXT/UTF8
Codec ID/Info        : UTF-8 Plain Text
Duration         : 1 h 52 min
Bit rate         : 26 b/s
Frame rate       : 0.139 FPS
Count of elements        : 938
Stream size      : 21.6 KiB (0%)
Language         : Polish
Default          : No
Forced       : No

Text #22
ID           : 24
Format       : UTF-8
Codec ID         : S_TEXT/UTF8
Codec ID/Info        : UTF-8 Plain Text
Duration         : 1 h 47 min
Bit rate         : 30 b/s
Frame rate       : 0.146 FPS
Count of elements        : 947
Stream size      : 23.8 KiB (0%)
Title        : Brazilian
Language         : Portuguese
Default          : No
Forced       : No

Text #23
ID           : 25
Format       : UTF-8
Codec ID         : S_TEXT/UTF8
Codec ID/Info        : UTF-8 Plain Text
Duration         : 1 h 47 min
Bit rate         : 31 b/s
Frame rate       : 0.148 FPS
Count of elements        : 955
Stream size      : 24.6 KiB (0%)
Title        : Iberian
Language         : Portuguese
Default          : No
Forced       : No

Text #24
ID           : 26
Format       : UTF-8
Codec ID         : S_TEXT/UTF8
Codec ID/Info        : UTF-8 Plain Text
Duration         : 1 h 52 min
Bit rate         : 32 b/s
Frame rate       : 0.135 FPS
Count of elements        : 913
Stream size      : 27.2 KiB (0%)
Language         : Romanian
Default          : No
Forced       : No

Text #25
ID           : 27
Format       : UTF-8
Codec ID         : S_TEXT/UTF8
Codec ID/Info        : UTF-8 Plain Text
Duration         : 1 h 47 min
Bit rate         : 45 b/s
Frame rate       : 0.141 FPS
Count of elements        : 910
Stream size      : 36.2 KiB (0%)
Language         : Russian
Default          : No
Forced       : No

Text #26
ID           : 28
Format       : UTF-8
Codec ID         : S_TEXT/UTF8
Codec ID/Info        : UTF-8 Plain Text
Duration         : 1 h 47 min
Bit rate         : 31 b/s
Frame rate       : 0.148 FPS
Count of elements        : 956
Stream size      : 25.2 KiB (0%)
Title        : Castilian
Language         : Spanish
Default          : No
Forced       : No

Text #27
ID           : 29
Format       : UTF-8
Codec ID         : S_TEXT/UTF8
Codec ID/Info        : UTF-8 Plain Text
Duration         : 1 h 52 min
Bit rate         : 28 b/s
Frame rate       : 0.141 FPS
Count of elements        : 949
Stream size      : 23.3 KiB (0%)
Title        : Latin American
Language         : Spanish
Default          : No
Forced       : No

Text #28
ID           : 30
Format       : UTF-8
Codec ID         : S_TEXT/UTF8
Codec ID/Info        : UTF-8 Plain Text
Duration         : 1 h 46 min
Bit rate         : 46 b/s
Frame rate       : 0.155 FPS
Count of elements        : 987
Stream size      : 36.4 KiB (0%)
Language         : Swedish
Default          : No
Forced       : No

Text #29
ID           : 31
Format       : UTF-8
Codec ID         : S_TEXT/UTF8
Codec ID/Info        : UTF-8 Plain Text
Duration         : 1 h 46 min
Bit rate         : 56 b/s
Frame rate       : 0.182 FPS
Count of elements        : 1166
Stream size      : 43.9 KiB (0%)
Title        : SDH
Language         : Swedish
Default          : No
Forced       : No

Text #30
ID           : 32
Format       : UTF-8
Codec ID         : S_TEXT/UTF8
Codec ID/Info        : UTF-8 Plain Text
Duration         : 1 h 47 min
Bit rate         : 80 b/s
Frame rate       : 0.148 FPS
Count of elements        : 956
Stream size      : 63.4 KiB (0%)
Language         : Thai
Default          : No
Forced       : No

Text #31
ID           : 33
Format       : UTF-8
Codec ID         : S_TEXT/UTF8
Codec ID/Info        : UTF-8 Plain Text
Duration         : 1 h 52 min
Bit rate         : 28 b/s
Frame rate       : 0.139 FPS
Count of elements        : 938
Stream size      : 23.2 KiB (0%)
Language         : Turkish
Default          : No
Forced       : No

Text #32
ID           : 34
Format       : UTF-8
Codec ID         : S_TEXT/UTF8
Codec ID/Info        : UTF-8 Plain Text
Duration         : 1 h 52 min
Bit rate         : 44 b/s
Frame rate       : 0.141 FPS
Count of elements        : 953
Stream size      : 36.4 KiB (0%)
Language         : Ukrainian
Default          : No
Forced       : No

Text #33
ID           : 35
Format       : UTF-8
Codec ID         : S_TEXT/UTF8
Codec ID/Info        : UTF-8 Plain Text
Duration         : 1 h 47 min
Bit rate         : 42 b/s
Frame rate       : 0.145 FPS
Count of elements        : 941
Stream size      : 33.9 KiB (0%)
Language         : Vietnamese
Default          : No
Forced       : No



第二MP4_D2mp4_黑蟹行动 Black.Crab.2022.SWEDISH.2160p.NF.WEB-DL.x265.10bit.HDR.DDP5.1.Atmos-SiC 11.83 GB
第二MP4_D2mp4_黑蟹行动 Black.Crab.2022.SWEDISH.2160p.NF.WEB-DL.x265.10bit.HDR.DDP5.1.Atmos-SiC 11.83 GB
第二MP4_D2mp4_黑蟹行动 Black.Crab.2022.SWEDISH.2160p.NF.WEB-DL.x265.10bit.HDR.DDP5.1.Atmos-SiC 11.83 GB

磁力链接

magnet:?xt=urn:btih:91d86ae92d6e4406fac69d6267186a717d0808b3

上传的附件:
最新回复 (0)
返回
本站所有资源均收集自互联网,没有提供影片资源存储, 也未参与录制、上传,若本站收录的资源无意侵犯了您的权益, 请联系邮箱:nsfhetuafkey#gmail.com(#[email protected])