[2022] [欧美] [喜剧] [x265-4K-HDR] 有史以来最棒的啤酒运送 The.Greatest.Beer.Run.Ever.2022.2160p.ATVP.WEB-DL.x265.10bit.HDR10Plus.DDP5.1.Atmos-SMURF 21.90 GB

d2mp4 2月前

第二MP4_D2mp4_有史以来最棒的啤酒运送 The.Greatest.Beer.Run.Ever.2022.2160p.ATVP.WEB-DL.x265.10bit.HDR10Plus.DDP5.1.Atmos-SMURF 21.90 GB

◎片  名 有史以来最棒的啤酒运送 The Greatest Beer Run Ever / 在前线干杯 / 有史以来最棒的啤酒 / 酒到前线探老友
◎年  代 2022
◎产  地 美国
◎类  别 剧情 / 喜剧 / 战争
◎语  言 英语 / 越南语
◎上映日期 2022-09-10(多伦多电影节) / 2022-09-30(美国/美国网络)
◎IMDb评分  6.8/10 from 15631 users
◎IMDb链接  https://www.imdb.com/title/tt10268488/
◎豆瓣评分 7.8/10 from 14828 users
◎豆瓣链接 https://movie.douban.com/subject/35134230/
◎片  长 126分钟
◎导  演 彼得·法雷里 Peter Farrelly
◎编  剧 彼得·法雷里 Peter Farrelly
       布莱恩·库瑞 Brian Hayes Currie
       皮特·琼斯 Pete Jones
◎主  演 扎克·埃夫隆 Zac Efron
       罗素·克劳 Russell Crowe
       比尔·默瑞 Bill Murray
       凯尔·艾伦 Kyle Allen
       杰克·皮克金 Jake Picking
       威尔·罗普 Will Ropp
       阿奇·雷诺 Archie Renaux
       乔·阿德勒 Joe Adler
       保罗·安德斯坦 Paul Adelstein
       鲁比·阿什伯恩·瑟金斯 Ruby Ashbourne Serkis
       罗恩·斯穆安伯格 Ron Smoorenburg
       保罗·斯隆 Paul Sloan
       迈克·哈顿 Mike Hatton
       丹尼斯·W·霍尔 Dennis W. Hall
       泰-霍·乐 Thai-Hoa Le
       安德鲁·穆斯卡托 Andrew Muscato

◎简  介

  该片编剧为法雷利和《绿皮书》的联合编剧Brian Currie及Pete Jones(《嘿咻卡》),改编自纪实书《The Greatest Beer Run Ever: A True Story of Friendship Stronger Than War》,讲述John "Chickie" Donohue的真实故事:越南战争时期的1967年,26岁的前美国海军陆战队成员Donohue从纽约出发,去越南寻找正在当兵的三个儿时好友,给他们送去啤酒。



Video
ID           : 1
Format       : HEVC
Format/Info      : High Efficiency Video Coding
Format profile       : Main [email protected]@High
HDR format       : Dolby Vision, Version 1.0, dvhe.08.06, BL+RPU, HDR10 compatible / SMPTE ST 2094 App 4, Version 1, HDR10+ Profile B compatible
Codec ID         : V_MPEGH/ISO/HEVC
Duration         : 2 h 6 min
Bit rate         : 23.9 Mb/s
Width        : 3 840 pixels
Height       : 1 920 pixels
Display aspect ratio     : 2.000
Frame rate mode      : Constant
Frame rate       : 23.976 (24000/1001) FPS
Color space      : YUV
Chroma subsampling       : 4:2:0 (Type 2)
Bit depth        : 10 bits
Bits/(Pixel*Frame)       : 0.135
Stream size      : 21.2 GiB (97%)
Default          : Yes
Forced       : No
Color range      : Limited
Color primaries      : BT.2020
Transfer characteristics     : PQ
Matrix coefficients      : BT.2020 non-constant
Mastering display color primaries    : Display P3
Mastering display luminance      : min: 0.0050 cd/m2, max: 1000 cd/m2
Maximum Content Light Level      : 899 cd/m2
Maximum Frame-Average Light Level    : 513 cd/m2

Audio
ID           : 2
Format       : E-AC-3 JOC
Format/Info      : Enhanced AC-3 with Joint Object Coding
Commercial name      : Dolby Digital Plus with Dolby Atmos
Codec ID         : A_EAC3
Duration         : 2 h 6 min
Bit rate mode        : Constant
Bit rate         : 768 kb/s
Channel(s)       : 6 channels
Channel layout       : L R C LFE Ls Rs
Sampling rate        : 48.0 kHz
Frame rate       : 31.250 FPS (1536 SPF)
Compression mode     : Lossy
Stream size      : 697 MiB (3%)
Language         : English
Service kind         : Complete Main
Default          : Yes
Forced       : No
Complexity index     : 16
Number of dynamic objects    : 15
Bed channel count        : 1 channel
Bed channel configuration    : LFE

Text #1
ID           : 3
Format       : UTF-8
Codec ID         : S_TEXT/UTF8
Codec ID/Info        : UTF-8 Plain Text
Duration         : 1 h 57 min
Bit rate         : 68 b/s
Frame rate       : 0.223 FPS
Count of elements        : 1578
Stream size      : 59.5 KiB (0%)
Language         : English
Default          : No
Forced       : No

Text #2
ID           : 4
Format       : UTF-8
Codec ID         : S_TEXT/UTF8
Codec ID/Info        : UTF-8 Plain Text
Duration         : 1 h 57 min
Bit rate         : 75 b/s
Frame rate       : 0.248 FPS
Count of elements        : 1751
Stream size      : 65.0 KiB (0%)
Title        : SDH
Language         : English
Default          : No
Forced       : No

Text #3
ID           : 5
Format       : UTF-8
Codec ID         : S_TEXT/UTF8
Codec ID/Info        : UTF-8 Plain Text
Duration         : 2 h 6 min
Bit rate         : 93 b/s
Frame rate       : 0.215 FPS
Count of elements        : 1630
Stream size      : 86.7 KiB (0%)
Language         : Arabic
Default          : No
Forced       : No

Text #4
ID           : 6
Format       : UTF-8
Codec ID         : S_TEXT/UTF8
Codec ID/Info        : UTF-8 Plain Text
Duration         : 2 h 6 min
Bit rate         : 92 b/s
Frame rate       : 0.199 FPS
Count of elements        : 1512
Stream size      : 85.6 KiB (0%)
Language         : Bulgarian
Default          : No
Forced       : No

Text #5
ID           : 7
Format       : UTF-8
Codec ID         : S_TEXT/UTF8
Codec ID/Info        : UTF-8 Plain Text
Duration         : 2 h 6 min
Bit rate         : 56 b/s
Frame rate       : 0.215 FPS
Count of elements        : 1630
Stream size      : 52.7 KiB (0%)
Title        : Simplified
Language         : Chinese
Default          : No
Forced       : No

Text #6
ID           : 8
Format       : UTF-8
Codec ID         : S_TEXT/UTF8
Codec ID/Info        : UTF-8 Plain Text
Duration         : 2 h 6 min
Bit rate         : 59 b/s
Frame rate       : 0.215 FPS
Count of elements        : 1631
Stream size      : 55.4 KiB (0%)
Title        : Traditional
Language         : Chinese
Default          : No
Forced       : No

Text #7
ID           : 9
Format       : UTF-8
Codec ID         : S_TEXT/UTF8
Codec ID/Info        : UTF-8 Plain Text
Duration         : 2 h 6 min
Bit rate         : 55 b/s
Frame rate       : 0.203 FPS
Count of elements        : 1542
Stream size      : 51.4 KiB (0%)
Language         : Czech
Default          : No
Forced       : No

Text #8
ID           : 10
Format       : UTF-8
Codec ID         : S_TEXT/UTF8
Codec ID/Info        : UTF-8 Plain Text
Duration         : 2 h 6 min
Bit rate         : 56 b/s
Frame rate       : 0.200 FPS
Count of elements        : 1517
Stream size      : 52.4 KiB (0%)
Language         : Danish
Default          : No
Forced       : No

Text #9
ID           : 11
Format       : UTF-8
Codec ID         : S_TEXT/UTF8
Codec ID/Info        : UTF-8 Plain Text
Duration         : 2 h 6 min
Bit rate         : 64 b/s
Frame rate       : 0.207 FPS
Count of elements        : 1567
Stream size      : 59.3 KiB (0%)
Language         : German
Default          : No
Forced       : No

Text #10
ID           : 12
Format       : UTF-8
Codec ID         : S_TEXT/UTF8
Codec ID/Info        : UTF-8 Plain Text
Duration         : 2 h 6 min
Bit rate         : 105 b/s
Frame rate       : 0.203 FPS
Count of elements        : 1542
Stream size      : 97.9 KiB (0%)
Language         : Greek
Default          : No
Forced       : No

Text #11
ID           : 13
Format       : UTF-8
Codec ID         : S_TEXT/UTF8
Codec ID/Info        : UTF-8 Plain Text
Duration         : 2 h 6 min
Bit rate         : 61 b/s
Frame rate       : 0.214 FPS
Count of elements        : 1625
Stream size      : 56.8 KiB (0%)
Title        : Latin American
Language         : Spanish
Default          : No
Forced       : No

Text #12
ID           : 14
Format       : UTF-8
Codec ID         : S_TEXT/UTF8
Codec ID/Info        : UTF-8 Plain Text
Duration         : 2 h 6 min
Bit rate         : 58 b/s
Frame rate       : 0.202 FPS
Count of elements        : 1534
Stream size      : 54.4 KiB (0%)
Language         : Estonian
Default          : No
Forced       : No

Text #13
ID           : 15
Format       : UTF-8
Codec ID         : S_TEXT/UTF8
Codec ID/Info        : UTF-8 Plain Text
Duration         : 2 h 6 min
Bit rate         : 55 b/s
Frame rate       : 0.206 FPS
Count of elements        : 1561
Stream size      : 51.4 KiB (0%)
Language         : Finnish
Default          : No
Forced       : No

Text #14
ID           : 16
Format       : UTF-8
Codec ID         : S_TEXT/UTF8
Codec ID/Info        : UTF-8 Plain Text
Duration         : 2 h 6 min
Bit rate         : 63 b/s
Frame rate       : 0.224 FPS
Count of elements        : 1695
Stream size      : 58.8 KiB (0%)
Title        : Canadian
Language         : French
Default          : No
Forced       : No

Text #15
ID           : 17
Format       : UTF-8
Codec ID         : S_TEXT/UTF8
Codec ID/Info        : UTF-8 Plain Text
Duration         : 2 h 6 min
Bit rate         : 87 b/s
Frame rate       : 0.215 FPS
Count of elements        : 1630
Stream size      : 80.6 KiB (0%)
Language         : Hebrew
Default          : No
Forced       : No

Text #16
ID           : 18
Format       : UTF-8
Codec ID         : S_TEXT/UTF8
Codec ID/Info        : UTF-8 Plain Text
Duration         : 2 h 6 min
Bit rate         : 174 b/s
Frame rate       : 0.215 FPS
Count of elements        : 1631
Stream size      : 162 KiB (0%)
Language         : Hindi
Default          : No
Forced       : No

Text #17
ID           : 19
Format       : UTF-8
Codec ID         : S_TEXT/UTF8
Codec ID/Info        : UTF-8 Plain Text
Duration         : 2 h 6 min
Bit rate         : 58 b/s
Frame rate       : 0.211 FPS
Count of elements        : 1601
Stream size      : 54.2 KiB (0%)
Language         : Hungarian
Default          : No
Forced       : No

Text #18
ID           : 20
Format       : UTF-8
Codec ID         : S_TEXT/UTF8
Codec ID/Info        : UTF-8 Plain Text
Duration         : 2 h 6 min
Bit rate         : 62 b/s
Frame rate       : 0.214 FPS
Count of elements        : 1623
Stream size      : 58.0 KiB (0%)
Language         : Indonesian
Default          : No
Forced       : No

Text #19
ID           : 21
Format       : UTF-8
Codec ID         : S_TEXT/UTF8
Codec ID/Info        : UTF-8 Plain Text
Duration         : 2 h 6 min
Bit rate         : 62 b/s
Frame rate       : 0.212 FPS
Count of elements        : 1606
Stream size      : 58.3 KiB (0%)
Language         : Italian
Default          : No
Forced       : No

Text #20
ID           : 22
Format       : UTF-8
Codec ID         : S_TEXT/UTF8
Codec ID/Info        : UTF-8 Plain Text
Duration         : 2 h 6 min
Bit rate         : 78 b/s
Frame rate       : 0.250 FPS
Count of elements        : 1898
Stream size      : 72.2 KiB (0%)
Language         : Japanese
Default          : No
Forced       : No

Text #21
ID           : 23
Format       : UTF-8
Codec ID         : S_TEXT/UTF8
Codec ID/Info        : UTF-8 Plain Text
Duration         : 2 h 6 min
Bit rate         : 70 b/s
Frame rate       : 0.215 FPS
Count of elements        : 1631
Stream size      : 65.6 KiB (0%)
Language         : Korean
Default          : No
Forced       : No

Text #22
ID           : 24
Format       : UTF-8
Codec ID         : S_TEXT/UTF8
Codec ID/Info        : UTF-8 Plain Text
Duration         : 2 h 6 min
Bit rate         : 63 b/s
Frame rate       : 0.213 FPS
Count of elements        : 1618
Stream size      : 59.1 KiB (0%)
Language         : Lithuanian
Default          : No
Forced       : No

Text #23
ID           : 25
Format       : UTF-8
Codec ID         : S_TEXT/UTF8
Codec ID/Info        : UTF-8 Plain Text
Duration         : 2 h 6 min
Bit rate         : 63 b/s
Frame rate       : 0.211 FPS
Count of elements        : 1598
Stream size      : 58.6 KiB (0%)
Language         : Latvian
Default          : No
Forced       : No

Text #24
ID           : 26
Format       : UTF-8
Codec ID         : S_TEXT/UTF8
Codec ID/Info        : UTF-8 Plain Text
Duration         : 2 h 6 min
Bit rate         : 62 b/s
Frame rate       : 0.214 FPS
Count of elements        : 1623
Stream size      : 57.8 KiB (0%)
Language         : Malay
Default          : No
Forced       : No

Text #25
ID           : 27
Format       : UTF-8
Codec ID         : S_TEXT/UTF8
Codec ID/Info        : UTF-8 Plain Text
Duration         : 2 h 6 min
Bit rate         : 56 b/s
Frame rate       : 0.181 FPS
Count of elements        : 1374
Stream size      : 52.3 KiB (0%)
Language         : Dutch
Default          : No
Forced       : No

Text #26
ID           : 28
Format       : UTF-8
Codec ID         : S_TEXT/UTF8
Codec ID/Info        : UTF-8 Plain Text
Duration         : 2 h 6 min
Bit rate         : 57 b/s
Frame rate       : 0.191 FPS
Count of elements        : 1448
Stream size      : 52.8 KiB (0%)
Language         : Norwegian
Default          : No
Forced       : No

Text #27
ID           : 29
Format       : UTF-8
Codec ID         : S_TEXT/UTF8
Codec ID/Info        : UTF-8 Plain Text
Duration         : 2 h 6 min
Bit rate         : 57 b/s
Frame rate       : 0.211 FPS
Count of elements        : 1602
Stream size      : 53.4 KiB (0%)
Language         : Polish
Default          : No
Forced       : No

Text #28
ID           : 30
Format       : UTF-8
Codec ID         : S_TEXT/UTF8
Codec ID/Info        : UTF-8 Plain Text
Duration         : 2 h 6 min
Bit rate         : 64 b/s
Frame rate       : 0.213 FPS
Count of elements        : 1613
Stream size      : 59.6 KiB (0%)
Title        : Brazilian
Language         : Portuguese
Default          : No
Forced       : No

Text #29
ID           : 31
Format       : UTF-8
Codec ID         : S_TEXT/UTF8
Codec ID/Info        : UTF-8 Plain Text
Duration         : 2 h 6 min
Bit rate         : 102 b/s
Frame rate       : 0.215 FPS
Count of elements        : 1630
Stream size      : 95.2 KiB (0%)
Language         : Russian
Default          : No
Forced       : No

Text #30
ID           : 32
Format       : UTF-8
Codec ID         : S_TEXT/UTF8
Codec ID/Info        : UTF-8 Plain Text
Duration         : 2 h 6 min
Bit rate         : 57 b/s
Frame rate       : 0.210 FPS
Count of elements        : 1596
Stream size      : 53.7 KiB (0%)
Language         : Slovak
Default          : No
Forced       : No

Text #31
ID           : 33
Format       : UTF-8
Codec ID         : S_TEXT/UTF8
Codec ID/Info        : UTF-8 Plain Text
Duration         : 2 h 6 min
Bit rate         : 49 b/s
Frame rate       : 0.197 FPS
Count of elements        : 1493
Stream size      : 45.8 KiB (0%)
Language         : Slovenian
Default          : No
Forced       : No

Text #32
ID           : 34
Format       : UTF-8
Codec ID         : S_TEXT/UTF8
Codec ID/Info        : UTF-8 Plain Text
Duration         : 2 h 6 min
Bit rate         : 62 b/s
Frame rate       : 0.204 FPS
Count of elements        : 1549
Stream size      : 57.7 KiB (0%)
Language         : Swedish
Default          : No
Forced       : No

Text #33
ID           : 35
Format       : UTF-8
Codec ID         : S_TEXT/UTF8
Codec ID/Info        : UTF-8 Plain Text
Duration         : 2 h 6 min
Bit rate         : 193 b/s
Frame rate       : 0.215 FPS
Count of elements        : 1629
Stream size      : 179 KiB (0%)
Language         : Tamil
Default          : No
Forced       : No

Text #34
ID           : 36
Format       : UTF-8
Codec ID         : S_TEXT/UTF8
Codec ID/Info        : UTF-8 Plain Text
Duration         : 2 h 6 min
Bit rate         : 194 b/s
Frame rate       : 0.215 FPS
Count of elements        : 1630
Stream size      : 180 KiB (0%)
Language         : Telugu
Default          : No
Forced       : No

Text #35
ID           : 37
Format       : UTF-8
Codec ID         : S_TEXT/UTF8
Codec ID/Info        : UTF-8 Plain Text
Duration         : 2 h 6 min
Bit rate         : 154 b/s
Frame rate       : 0.209 FPS
Count of elements        : 1579
Stream size      : 143 KiB (0%)
Language         : Thai
Default          : No
Forced       : No

Text #36
ID           : 38
Format       : UTF-8
Codec ID         : S_TEXT/UTF8
Codec ID/Info        : UTF-8 Plain Text
Duration         : 2 h 6 min
Bit rate         : 61 b/s
Frame rate       : 0.213 FPS
Count of elements        : 1612
Stream size      : 57.0 KiB (0%)
Language         : Turkish
Default          : No
Forced       : No

Text #37
ID           : 39
Format       : UTF-8
Codec ID         : S_TEXT/UTF8
Codec ID/Info        : UTF-8 Plain Text
Duration         : 2 h 6 min
Bit rate         : 94 b/s
Frame rate       : 0.214 FPS
Count of elements        : 1621
Stream size      : 87.2 KiB (0%)
Language         : Ukrainian
Default          : No
Forced       : No

Text #38
ID           : 40
Format       : UTF-8
Codec ID         : S_TEXT/UTF8
Codec ID/Info        : UTF-8 Plain Text
Duration         : 2 h 6 min
Bit rate         : 80 b/s
Frame rate       : 0.214 FPS
Count of elements        : 1625
Stream size      : 74.9 KiB (0%)
Language         : Vietnamese
Default          : No
Forced       : No

Text #39
ID           : 41
Format       : UTF-8
Codec ID         : S_TEXT/UTF8
Codec ID/Info        : UTF-8 Plain Text
Duration         : 2 h 6 min
Bit rate         : 56 b/s
Frame rate       : 0.215 FPS
Count of elements        : 1631
Stream size      : 52.5 KiB (0%)
Title        : Traditional
Language         : Chinese
Default          : No
Forced       : No



第二MP4_D2mp4_有史以来最棒的啤酒运送 The.Greatest.Beer.Run.Ever.2022.2160p.ATVP.WEB-DL.x265.10bit.HDR10Plus.DDP5.1.Atmos-SMURF 21.90 GB
第二MP4_D2mp4_有史以来最棒的啤酒运送 The.Greatest.Beer.Run.Ever.2022.2160p.ATVP.WEB-DL.x265.10bit.HDR10Plus.DDP5.1.Atmos-SMURF 21.90 GB
第二MP4_D2mp4_有史以来最棒的啤酒运送 The.Greatest.Beer.Run.Ever.2022.2160p.ATVP.WEB-DL.x265.10bit.HDR10Plus.DDP5.1.Atmos-SMURF 21.90 GB

磁力链接

magnet:?xt=urn:btih:e2301b9133658085b5e31b498a08668b27840627

上传的附件:
最新回复 (0)
返回
本站所有资源均收集自互联网,没有提供影片资源存储, 也未参与录制、上传,若本站收录的资源无意侵犯了您的权益, 请联系邮箱:nsfhetuafkey#gmail.com(#[email protected])