[2011] [欧美] [动画] [x265-4K-HDR] 穿靴子的猫 Puss.in.Boots.2011.2160p.UHD.BluRay.x265.10bit.HDR.DTS-X.7.1-B0MBARDiERS 6.40 GB

d2mp4 2月前

第二MP4_D2mp4_穿靴子的猫 Puss.in.Boots.2011.2160p.UHD.BluRay.x265.10bit.HDR.DTS-X.7.1-B0MBARDiERS 6.40 GB

◎片  名 穿靴子的猫 Puss in Boots / 靴猫外传 / 鞋猫剑客(台) / 无敌猫剑侠(港) / 猫剑侠
◎年  代 2011
◎产  地 美国
◎类  别 喜剧 / 动画 / 家庭 / 奇幻 / 冒险
◎语  言 英语 / 西班牙语
◎上映日期 2011-10-28(美国)
◎IMDb评分  6.6/10 from 160442 users
◎IMDb链接  https://www.imdb.com/title/tt0448694/
◎豆瓣评分 7.7/10 from 125974 users
◎豆瓣链接 https://movie.douban.com/subject/2028585/
◎片  长 90 分钟
◎导  演 克里斯·米勒 Chris Miller
◎编  剧 汤姆·惠勒 Tom Wheeler
       布莱恩·林奇 Brian Lynch
       威廉姆·戴维斯 William Davies
       安德鲁·亚当森 Andrew Adamson
       夏尔·佩罗 Charles Perrault
       大卫·H·斯坦伯格 David H. Steinberg
       David Steinberg David Steinberg
       Brian Lynch Brian Lynch
◎主  演 安东尼奥·班德拉斯 Antonio Banderas
       萨尔玛·海耶克 Salma Hayek
       扎克·加利凡纳基斯 Zach Galifianakis
       比利·鲍伯·松顿 Billy Bob Thornton
       艾米·塞德丽丝 Amy Sedaris
       康斯坦斯·马丽 Constance Marie
       吉尔莫·德尔·托罗 Guillermo del Toro
       迈克·米切尔 Mike Mitchell
       汤姆·惠勒 Tom Wheeler
       康拉德·弗农 Conrad Vernon
       汤姆·麦格拉思 Tom McGrath
       鲍勃·乔尔斯 Bob Joles
       鲍勃·佩尔西凯蒂 Bob Persichetti
       杰西卡·舒尔特 Jessica Schulte
       Sergio Bruna Sergio Bruna
       Jossara Jinaro Jossara Jinaro
       拉拉·吉尔·米勒 Lara Jill Miller
       约书亚·拉什 Joshua Rush
       古明华 Ming-Wah Koo

◎简  介

  他是一只穿靴子的猫(安东尼奥·班德拉斯 Antonio Banderas 配音),多年来行侠仗义,行走江湖,剑术高明,胆大卖萌,虽是官兵通缉捉拿的要犯,但从来都无所畏惧,泰然自若。在某个极不友好的小酒馆里,靴猫听说杰克(Billy Bob Thornton 配音)和吉尔 (Amy Sedaris 配音)这对雌雄恶棍拿到了传说中的魔豆,魔豆长出的豆荚直通巨人的宫殿,而那里住着令人垂涎可以下金蛋的鹅。靴猫决定铤而走险劫掠魔豆,却遭到神秘的黑猫阻挠。在黑猫引诱下,他来到一处猫儿聚会的场所,结果意外遇到当年孤儿院的好友矮蛋(Zach Galifianakis 配音),黑猫则是性感的小母猫咪·柔爪(萨尔玛·海耶克 Salma Hayek 配音)。                                    
      矮蛋希望和靴猫重组魔豆帮,拿到下蛋的金鹅……

◎获奖情况

  第84届奥斯卡金像奖 (2012)
  最佳动画长片(提名)
  克里斯·米勒

  第69届金球奖 (2012)
  电影类 最佳动画长片(提名)
  

  第39届动画安妮奖 (2012)
  最佳动画长片(提名)
  最佳导演(提名)
  克里斯·米勒最佳配音(提名)
  扎克·加利凡纳基斯最佳配乐(提名)
  亨利·杰克曼最佳剪辑(提名)
  最佳分镜(提名)
  最佳动画角色(提名)
  最佳角色设计(提名)
  最佳动画效果(提名)
  

  第17届美国评论家选择电影奖 (2012)
  最佳动画片(提名)
  

  第10届华盛顿影评人协会奖 (2011)
  最佳动画片(提名)
  

  第24届芝加哥影评人协会奖 (2011)
  最佳动画片(提名)
  

  第14届美国青少年选择奖 (2012)
  最佳动作片女演员(提名)
  萨尔玛·海耶克最佳动画片(提名)



Video
ID           : 1
Format       : HEVC
Format/Info      : High Efficiency Video Coding
Format profile       : Main [email protected]@High
HDR format       : SMPTE ST 2086, HDR10 compatible
Codec ID         : V_MPEGH/ISO/HEVC
Duration         : 1 h 30 min
Bit rate         : 5 505 kb/s
Width        : 3 830 pixels
Height       : 1 628 pixels
Display aspect ratio     : 2.35:1
Frame rate mode      : Constant
Frame rate       : 23.976 (24000/1001) FPS
Color space      : YUV
Chroma subsampling       : 4:2:0 (Type 2)
Bit depth        : 10 bits
Bits/(Pixel*Frame)       : 0.037
Stream size      : 3.48 GiB (55%)
Writing library      : x265 3.5+67-49ab9e83b:[Windows][GCC 12.2.0][64 bit] 10bit
Encoding settings        : cpuid=1176575 / frame-threads=5 / numa-pools=36 / wpp / no-pmode / no-pme / no-psnr / no-ssim / log-level=2 / input-csp=1 / input-res=3830x1628 / interlace=0 / total-frames=130320 / level-idc=51 / high-tier=1 / uhd-bd=0 / ref=4 / no-allow-non-conformance / repeat-headers / annexb / aud / no-eob / no-eos / hrd / info / hash=0 / no-temporal-layers / open-gop / min-keyint=23 / keyint=250 / gop-lookahead=0 / bframes=6 / b-adapt=2 / b-pyramid / bframe-bias=0 / rc-lookahead=25 / lookahead-slices=4 / scenecut=40 / no-hist-scenecut / radl=0 / no-splice / no-intra-refresh / ctu=64 / min-cu-size=8 / rect / no-amp / max-tu-size=32 / tu-inter-depth=1 / tu-intra-depth=1 / limit-tu=0 / rdoq-level=2 / dynamic-rd=0.00 / no-ssim-rd / signhide / no-tskip / nr-intra=0 / nr-inter=0 / no-constrained-intra / strong-intra-smoothing / max-merge=3 / limit-refs=3 / limit-modes / me=3 / subme=3 / merange=57 / temporal-mvp / no-frame-dup / no-hme / weightp / no-weightb / no-analyze-src-pics / deblock=1:1 / no-sao / no-sao-non-deblock / rd=4 / selective-sao=0 / no-early-skip / rskip / no-fast-intra / no-tskip-fast / no-cu-lossless / no-b-intra / no-splitrd-skip / rdpenalty=0 / psy-rd=0.40 / psy-rdoq=1.00 / no-rd-refine / no-lossless / cbqpoffs=0 / crqpoffs=0 / rc=crf / crf=13.0 / qcomp=0.60 / qpstep=4 / stats-write=0 / stats-read=0 / vbv-maxrate=160000 / vbv-bufsize=160000 / vbv-init=0.9 / min-vbv-fullness=50.0 / max-vbv-fullness=80.0 / crf-max=0.0 / crf-min=0.0 / ipratio=1.40 / pbratio=1.30 / aq-mode=2 / aq-strength=0.40 / cutree / zone-count=0 / no-strict-cbr / qg-size=32 / no-rc-grain / qpmax=69 / qpmin=0 / no-const-vbv / sar=1 / overscan=0 / videoformat=5 / range=0 / colorprim=9 / transfer=16 / colormatrix=9 / chromaloc=1 / chromaloc-top=2 / chromaloc-bottom=2 / display-window=0 / master-display=G(13250,34500)B(7500,3000)R(34000,16000)WP(15635,16450)L(10000000,50) / cll=1000,240 / min-luma=0 / max-luma=1023 / log2-max-poc-lsb=8 / vui-timing-info / vui-hrd-info / slices=1 / no-opt-qp-pps / no-opt-ref-list-length-pps / no-multi-pass-opt-rps / scenecut-bias=0.05 / no-opt-cu-delta-qp / no-aq-motion / no-sbrc / hdr10 / hdr10-opt / no-dhdr10-opt / no-idr-recovery-sei / analysis-reuse-level=0 / analysis-save-reuse-level=0 / analysis-load-reuse-level=0 / scale-factor=0 / refine-intra=0 / refine-inter=0 / refine-mv=1 / refine-ctu-distortion=0 / no-limit-sao / ctu-info=0 / no-lowpass-dct / refine-analysis-type=0 / copy-pic=1 / max-ausize-factor=1.0 / no-dynamic-refine / no-single-sei / no-hevc-aq / no-svt / no-field / qp-adaptation-range=1.00 / scenecut-aware-qp=0conformance-window-offsets / right=0 / bottom=0 / decoder-max-rate=0 / no-vbv-live-multi-pass / no-mcstf
Default          : Yes
Forced       : No
Color range      : Limited
Color primaries      : BT.2020
Transfer characteristics     : PQ
Matrix coefficients      : BT.2020 non-constant
Mastering display color primaries    : Display P3
Mastering display luminance      : min: 0.0050 cd/m2, max: 1000 cd/m2
Maximum Content Light Level      : 1000 cd/m2
Maximum Frame-Average Light Level    : 240 cd/m2

Audio
ID           : 2
Format       : DTS XLL X
Format/Info      : Digital Theater Systems
Commercial name      : DTS-HD Master Audio
Codec ID         : A_DTS
Duration         : 1 h 30 min
Bit rate mode        : Variable
Bit rate         : 4 445 kb/s
Channel(s)       : 8 channels
Channel(s)_Original      : Object Based
ChannelLayout_Original       : Object Based
Sampling rate        : 48.0 kHz
Frame rate       : 93.750 FPS (512 SPF)
Bit depth        : 24 bits
Stream size      : 2.81 GiB (44%)
Language         : English
Default          : Yes
Forced       : No

Text #1
ID           : 3
Format       : PGS
Muxing mode      : zlib
Codec ID         : S_HDMV/PGS
Codec ID/Info        : Picture based subtitle format used on BDs/HD-DVDs
Duration         : 1 h 22 min
Bit rate         : 45.0 kb/s
Frame rate       : 0.596 FPS
Count of elements        : 2941
Stream size      : 26.5 MiB (0%)
Title        : English SDH
Language         : English
Default          : No
Forced       : No

Text #2
ID           : 4
Format       : PGS
Muxing mode      : zlib
Codec ID         : S_HDMV/PGS
Codec ID/Info        : Picture based subtitle format used on BDs/HD-DVDs
Duration         : 1 h 29 min
Bit rate         : 26.9 kb/s
Frame rate       : 0.319 FPS
Count of elements        : 1712
Stream size      : 17.2 MiB (0%)
Title        : Spanish
Language         : Spanish
Default          : No
Forced       : No

Text #3
ID           : 5
Format       : PGS
Muxing mode      : zlib
Codec ID         : S_HDMV/PGS
Codec ID/Info        : Picture based subtitle format used on BDs/HD-DVDs
Duration         : 1 h 29 min
Bit rate         : 28.7 kb/s
Frame rate       : 0.354 FPS
Count of elements        : 1902
Stream size      : 18.4 MiB (0%)
Title        : French
Language         : French
Default          : No
Forced       : No

Text #4
ID           : 6
Format       : PGS
Muxing mode      : zlib
Codec ID         : S_HDMV/PGS
Codec ID/Info        : Picture based subtitle format used on BDs/HD-DVDs
Duration         : 1 h 27 min
Bit rate         : 138 b/s
Frame rate       : 0.002 FPS
Count of elements        : 10
Stream size      : 88.3 KiB (0%)
Title        : Spannish
Language         : Spanish
Default          : No
Forced       : No

Text #5
ID           : 7
Format       : PGS
Muxing mode      : zlib
Codec ID         : S_HDMV/PGS
Codec ID/Info        : Picture based subtitle format used on BDs/HD-DVDs
Duration         : 1 h 27 min
Bit rate         : 193 b/s
Frame rate       : 0.003 FPS
Count of elements        : 18
Stream size      : 123 KiB (0%)
Title        : French
Language         : French
Default          : No
Forced       : No

Menu
00:00:00.000         : en:Chapter 01
00:03:49.271         : en:Chapter 02
00:07:44.172         : en:Chapter 03
00:12:10.855         : en:Chapter 04
00:16:17.393         : en:Chapter 05
00:19:47.561         : en:Chapter 06
00:26:22.372         : en:Chapter 07
00:29:46.451         : en:Chapter 08
00:34:30.485         : en:Chapter 09
00:39:41.504         : en:Chapter 10
00:44:35.923         : en:Chapter 11
00:49:58.078         : en:Chapter 12
00:54:29.975         : en:Chapter 13
00:58:02.813         : en:Chapter 14
01:03:30.015         : en:Chapter 15
01:08:39.115         : en:Chapter 16
01:17:15.798         : en:Chapter 17
01:20:06.176         : en:Chapter 18
01:30:35.180         : en:Chapter 19



第二MP4_D2mp4_穿靴子的猫 Puss.in.Boots.2011.2160p.UHD.BluRay.x265.10bit.HDR.DTS-X.7.1-B0MBARDiERS 6.40 GB
第二MP4_D2mp4_穿靴子的猫 Puss.in.Boots.2011.2160p.UHD.BluRay.x265.10bit.HDR.DTS-X.7.1-B0MBARDiERS 6.40 GB
第二MP4_D2mp4_穿靴子的猫 Puss.in.Boots.2011.2160p.UHD.BluRay.x265.10bit.HDR.DTS-X.7.1-B0MBARDiERS 6.40 GB

磁力链接

magnet:?xt=urn:btih:ad2792bec95312f1028a89a8ac564008c53aa042

上传的附件:
最新回复 (0)
返回
本站所有资源均收集自互联网,没有提供影片资源存储, 也未参与录制、上传,若本站收录的资源无意侵犯了您的权益, 请联系邮箱:nsfhetuafkey#gmail.com(#[email protected])