[更早] [欧美] [其他] [BD-Remux] 黑潮 Malcolm.X.1992.REMASTERED.1080p.BluRay.REMUX.AVC.DTS-HD.MA.5.1-FGT 42.09 GB

d2mp4 2月前

第二MP4_D2mp4_黑潮 Malcolm.X.1992.REMASTERED.1080p.BluRay.REMUX.AVC.DTS-HD.MA.5.1-FGT 42.09 GB

◎片  名 黑潮 Malcolm X / 马尔科姆 X / 马尔科姆·艾克斯
◎年  代 1992
◎产  地 美国 / 日本
◎类  别 剧情 / 传记 / 历史
◎语  言 英语
◎上映日期 1992-11-18(美国)
◎IMDb评分  7.7/10 from 95384 users
◎IMDb链接  https://www.imdb.com/title/tt0104797/
◎豆瓣评分 8.1/10 from 3837 users
◎豆瓣链接 https://movie.douban.com/subject/1292681/
◎片  长 202 分钟
◎导  演 斯派克·李 Spike Lee
◎编  剧 阿诺德·珀尔 Arnold Perl
       斯派克·李 Spike Lee
◎主  演 丹泽尔·华盛顿 Denzel Washington
       安吉拉·贝塞特 Angela Bassett
       阿尔伯特·海尔 Albert Hall
       小阿尔·弗里曼 Al Freeman Jr.
       斯派克·李 Spike Lee
       纳尔逊·曼德拉 Nelson Mandela
       吉安卡罗·埃斯波西托 Giancarlo Esposito
       德尔罗伊·林多 Delroy Lindo
       史蒂夫·怀特 Steve White
       约翰·大卫·华盛顿 John David Washington
       克里斯托弗·普卢默 Christopher Plummer
       马丁·唐文 Martin Donovan
       George T. Odom George T. Odom
       迈克尔·库伦 Michael Cullen
       Zakee Howze Zakee Howze
       Fracaswell Hyman Fracaswell Hyman
       艾丽斯·里特尔·托马斯 Iris Little Thomas
       Peewee Love Peewee Love
       Norma Miller Norma Miller
       户田惠子 Keiko Toda

◎简  介

  迈尔肯(丹泽尔•华盛顿 Denzel Washington 饰)出生于一个黑白通婚的家庭,其父是黑人牧师,其母是无偏见的白人。但是当时,美国种族矛盾激化,3K党经常骚扰他家,在他的幼小心灵中种下了复仇的种子。迈尔肯长大后,混迹于街巷酒吧之中,甚至染上了毒品、偷盗等恶习。一次偶然的机会,迈尔肯与白人女子索菲亚相遇,但这段爱情因种族偏见而夭折。迈尔肯因犯罪锒铛入狱,正当他处于困境之时,一位黑人教徒引领他皈依了伊斯兰教,这也成为他人生的转捩点。他通过阅读大量书籍,逐渐了解了种族歧视的文化根源,并多次在公开场合宣扬黑人要独立、对白人复仇的激进主张,引起轩然大波。迈尔肯成为很多人的眼中钉,甚至遭遇了背叛,引来了灭顶之灾……

◎获奖情况

  第65届奥斯卡金像奖 (1993)
  最佳男主角(提名)
  丹泽尔·华盛顿最佳服装设计(提名)
  露丝·E·卡特

  第43届柏林国际电影节 (1993)
  金熊奖 最佳影片(提名)
  斯派克·李银熊奖 最佳男演员
  丹泽尔·华盛顿

  第50届金球奖 (1993)
  电影类 剧情片最佳男主角(提名)
  丹泽尔·华盛顿



Video
ID           : 1
ID in the original source medium     : 4113 (0x1011)
Format       : AVC
Format/Info      : Advanced Video Codec
Format profile       : [email protected]
Format settings      : CABAC / 4 Ref Frames
Format settings, CABAC       : Yes
Format settings, Reference frames    : 4 frames
Codec ID         : V_MPEG4/ISO/AVC
Duration         : 3 h 21 min
Bit rate mode        : Variable
Bit rate         : 25.5 Mb/s
Maximum bit rate     : 37.0 Mb/s
Width        : 1 920 pixels
Height       : 1 080 pixels
Display aspect ratio     : 16:9
Frame rate mode      : Constant
Frame rate       : 23.976 (24000/1001) FPS
Color space      : YUV
Chroma subsampling       : 4:2:0
Bit depth        : 8 bits
Scan type        : Progressive
Bits/(Pixel*Frame)       : 0.513
Stream size      : 36.0 GiB (85%)
Language         : English
Default          : No
Forced       : No
Original source medium       : Blu-ray

Audio #1
ID           : 2
ID in the original source medium     : 4352 (0x1100)
Format       : DTS XLL
Format/Info      : Digital Theater Systems
Commercial name      : DTS-HD Master Audio
Codec ID         : A_DTS
Duration         : 3 h 21 min
Bit rate mode        : Variable
Bit rate         : 4 136 kb/s
Channel(s)       : 6 channels
Channel layout       : C L R Ls Rs LFE
Sampling rate        : 48.0 kHz
Frame rate       : 93.750 FPS (512 SPF)
Bit depth        : 24 bits
Compression mode     : Lossless
Stream size      : 5.83 GiB (14%)
Title        : DTS-HD MA 5.1
Language         : English
Default          : Yes
Forced       : No
Original source medium       : Blu-ray

Audio #2
ID           : 3
ID in the original source medium     : 4353 (0x1101)
Format       : AC-3
Format/Info      : Audio Coding 3
Commercial name      : Dolby Digital
Codec ID         : A_AC3
Duration         : 3 h 21 min
Bit rate mode        : Constant
Bit rate         : 192 kb/s
Channel(s)       : 2 channels
Channel layout       : L R
Sampling rate        : 48.0 kHz
Frame rate       : 31.250 FPS (1536 SPF)
Compression mode     : Lossy
Stream size      : 277 MiB (1%)
Title        : DD 2.0
Language         : English
Service kind         : Complete Main
Default          : No
Forced       : No
Original source medium       : Blu-ray

Text #1
ID           : 4
Format       : UTF-8
Codec ID         : S_TEXT/UTF8
Codec ID/Info        : UTF-8 Plain Text
Duration         : 3 h 21 min
Bit rate         : 82 b/s
Frame rate       : 0.270 FPS
Count of elements        : 3264
Stream size      : 122 KiB (0%)
Language         : English
Default          : Yes
Forced       : No

Text #2
ID           : 5
Format       : UTF-8
Codec ID         : S_TEXT/UTF8
Codec ID/Info        : UTF-8 Plain Text
Duration         : 3 h 21 min
Bit rate         : 89 b/s
Frame rate       : 0.289 FPS
Count of elements        : 3500
Stream size      : 132 KiB (0%)
Title        : SDH
Language         : English
Default          : No
Forced       : No

Text #3
ID           : 6
ID in the original source medium     : 4608 (0x1200)
Format       : PGS
Muxing mode      : zlib
Codec ID         : S_HDMV/PGS
Codec ID/Info        : Picture based subtitle format used on BDs/HD-DVDs
Duration         : 3 h 21 min
Bit rate         : 75.5 kb/s
Frame rate       : 0.580 FPS
Count of elements        : 7019
Stream size      : 109 MiB (0%)
Language         : English
Default          : No
Forced       : No
Original source medium       : Blu-ray

Menu
00:00:00.000         : en:Chapter 01
00:03:00.221         : en:Chapter 02
00:10:16.365         : en:Chapter 03
00:18:26.396         : en:Chapter 04
00:21:45.512         : en:Chapter 05
00:28:08.228         : en:Chapter 06
00:36:31.230         : en:Chapter 07
00:39:57.269         : en:Chapter 08
00:45:41.071         : en:Chapter 09
00:50:06.878         : en:Chapter 10
01:00:40.470         : en:Chapter 11
01:08:21.305         : en:Chapter 12
01:18:01.301         : en:Chapter 13
01:25:43.388         : en:Chapter 14
01:27:58.940         : en:Chapter 15
01:32:08.731         : en:Chapter 16
01:36:12.141         : en:Chapter 17
01:41:01.513         : en:Chapter 18
01:49:06.957         : en:Chapter 19
01:54:03.127         : en:Chapter 20
01:56:59.095         : en:Chapter 21
02:02:50.404         : en:Chapter 22
02:13:29.543         : en:Chapter 23
02:19:19.184         : en:Chapter 24
02:25:59.584         : en:Chapter 25
02:29:38.844         : en:Chapter 26
02:34:14.328         : en:Chapter 27
02:42:39.708         : en:Chapter 28
02:45:58.949         : en:Chapter 29
02:50:56.329         : en:Chapter 30
02:56:52.059         : en:Chapter 31
03:07:03.212         : en:Chapter 32
03:12:35.502         : en:Chapter 33



第二MP4_D2mp4_黑潮 Malcolm.X.1992.REMASTERED.1080p.BluRay.REMUX.AVC.DTS-HD.MA.5.1-FGT 42.09 GB
第二MP4_D2mp4_黑潮 Malcolm.X.1992.REMASTERED.1080p.BluRay.REMUX.AVC.DTS-HD.MA.5.1-FGT 42.09 GB
第二MP4_D2mp4_黑潮 Malcolm.X.1992.REMASTERED.1080p.BluRay.REMUX.AVC.DTS-HD.MA.5.1-FGT 42.09 GB

磁力链接

magnet:?xt=urn:btih:d2776ad8258183fa61c250bb99a0837257fb2d29

上传的附件:
最新回复 (0)
返回
本站所有资源均收集自互联网,没有提供影片资源存储, 也未参与录制、上传,若本站收录的资源无意侵犯了您的权益, 请联系邮箱:nsfhetuafkey#gmail.com(#[email protected])