[2022] [欧美] [喜剧] [x265-4K-HDR] 见鬼女孩 Darby.and.the.Dead.2022.2160p.HULU.WEB-DL.x265.10bit.HDR10Plus.DDP5.1-TRUFFLE 10.79 GB

d2mp4 1月前

第二MP4_D2mp4_见鬼女孩 Darby.and.the.Dead.2022.2160p.HULU.WEB-DL.x265.10bit.HDR10Plus.DDP5.1-TRUFFLE 10.79 GB

◎片  名 见鬼女孩 Darby and the Dead / Darby Harper Wants You to Know
◎年  代 2022
◎产  地 美国
◎类  别 剧情 / 喜剧 / 恐怖 / 奇幻
◎语  言 英语
◎上映日期 2022-12-02(美国网络)
◎IMDb评分 
◎IMDb链接  https://www.imdb.com/title/tt15745226/
◎豆瓣评分 /10 from 0 users
◎豆瓣链接 https://movie.douban.com/subject/36043393/
◎片  长 
◎导  演 西拉斯·霍华德 Silas Howard
◎编  剧 贝卡·格林 Becca Greene
       维诺纳·威尔姆斯 Wenonah Wilms
◎主  演 瑞尔·唐斯 Riele Downs
       奥丽伊·卡瓦洛 Auli'i Cravalho
       乔森·雅各布 Chosen Jacobs
       亚瑟·安其 Asher Angel
       韦恩·奈特 Wayne Knight
       德里克·卢克 Derek Luke
       托尼·丹扎 Tony Danza
       妮可·梅因斯 Nicole Maines
       米拉·雷恩 Mila Rayne
       安东尼·奥塞耶姆 Anthony Oseyemi
       劳伦·麦格雷 Lauren McGregor

◎简  介

  Followed by Darby Harper, who is granted the ability to see ghosts after suffering a near death experience in her childhood. Then, she runs a side business counseling local spirits in her spare time.



Video
ID           : 1
Format       : HEVC
Format/Info      : High Efficiency Video Coding
Format profile       : Main [email protected]@Main
HDR format       : Dolby Vision, Version 1.0, dvhe.08.06, BL+RPU, HDR10 compatible / SMPTE ST 2094 App 4, Version 1, HDR10+ Profile B compatible
Codec ID         : V_MPEGH/ISO/HEVC
Duration         : 1 h 40 min
Bit rate         : 15.2 Mb/s
Width        : 3 840 pixels
Height       : 2 160 pixels
Display aspect ratio     : 16:9
Frame rate mode      : Constant
Frame rate       : 24.000 FPS
Color space      : YUV
Chroma subsampling       : 4:2:0 (Type 2)
Bit depth        : 10 bits
Bits/(Pixel*Frame)       : 0.076
Stream size      : 10.6 GiB (98%)
Language         : English
Default          : Yes
Forced       : No
Color range      : Limited
Color primaries      : BT.2020
Transfer characteristics     : PQ
Matrix coefficients      : BT.2020 non-constant
Mastering display color primaries    : BT.2020
Mastering display luminance      : min: 0.0001 cd/m2, max: 1000 cd/m2
Maximum Content Light Level      : 951 cd/m2
Maximum Frame-Average Light Level    : 566 cd/m2

Audio
ID           : 2
Format       : E-AC-3
Format/Info      : Enhanced AC-3
Commercial name      : Dolby Digital Plus
Codec ID         : A_EAC3
Duration         : 1 h 40 min
Bit rate mode        : Constant
Bit rate         : 256 kb/s
Channel(s)       : 6 channels
Channel layout       : L R C LFE Ls Rs
Sampling rate        : 48.0 kHz
Frame rate       : 31.250 FPS (1536 SPF)
Compression mode     : Lossy
Stream size      : 184 MiB (2%)
Language         : English
Service kind         : Complete Main
Default          : Yes
Forced       : No

Text #1
ID           : 3
Format       : UTF-8
Codec ID         : S_TEXT/UTF8
Codec ID/Info        : UTF-8 Plain Text
Duration         : 1 h 34 min
Bit rate         : 102 b/s
Frame rate       : 0.342 FPS
Count of elements        : 1941
Stream size      : 71.0 KiB (0%)
Title        : English
Language         : English
Default          : No
Forced       : No

Text #2
ID           : 4
Format       : UTF-8
Codec ID         : S_TEXT/UTF8
Codec ID/Info        : UTF-8 Plain Text
Duration         : 1 h 34 min
Bit rate         : 90 b/s
Frame rate       : 0.331 FPS
Count of elements        : 1887
Stream size      : 62.8 KiB (0%)
Title        : Spanish
Language         : Spanish
Default          : No
Forced       : No


磁力链接

magnet:?xt=urn:btih:10a61daa677cc8c20de35ebd1c9bb3000c71e2b5

上传的附件:
最新回复 (0)
返回
本站所有资源均收集自互联网,没有提供影片资源存储, 也未参与录制、上传,若本站收录的资源无意侵犯了您的权益, 请联系邮箱:nsfhetuafkey#gmail.com(#[email protected])