[2022] [欧美] [喜剧] [x265-4K-HDR] 小屁孩日记:罗德里克规则 Diary.of.a.Wimpy.Kid.2.Rodrick.Rules.2022.2160p.DSNP.WEB-DL.x265.10bit.HDR.DDP5.1.Atmos-SMURF 7.71 GB

d2mp4 1月前

第二MP4_D2mp4_小屁孩日记:罗德里克规则 Diary.of.a.Wimpy.Kid.2.Rodrick.Rules.2022.2160p.DSNP.WEB-DL.x265.10bit.HDR.DDP5.1.Atmos-SMURF 7.71 GB

◎片  名 小屁孩日记:罗德里克规则 Diary of a Wimpy Kid: Rodrick Rules / 逊咖冒险王2:兄弟难当(台)
◎年  代 2022
◎产  地 加拿大 / 美国
◎类  别 剧情 / 喜剧 / 动画
◎语  言 英语
◎上映日期 2022-12-02(美国网络)
◎IMDb评分 
◎IMDb链接  https://www.imdb.com/title/tt15847828/
◎豆瓣评分 /10 from 0 users
◎豆瓣链接 https://movie.douban.com/subject/35718296/
◎片  长 100分钟
◎导  演 
◎编  剧 杰夫·金尼 Jeff Kinney
◎主  演 亨特·狄龙 Hunter Dillon
       布雷迪·诺恩 Brady Noon
       艾瑞卡·塞拉 Erica Cerra
       克里斯·迪亚曼托普洛斯 Chris Diamantopoulos
       爱德华·阿斯纳 Edward Asner
       琳达·拉文 Linda Lavin
       洛雷塔·迪瓦恩 Loretta Devine
       普里西拉·洛佩兹 Priscilla Lopez
       阿尔伯特·蔡 Albert Tsai
       杨升德 Hudson Yang
       吉米·塔特罗 Jimmy Tatro
       金伯莉·布鲁克斯 Kimberly Brooks
       文森·童 Vincent Tong
       薇娜·苏德 Veena Sood
       罗比·戴蒙德 Robbie Daymond
       鲍伯·伯根 Bob Bergen
       亚伦·福尔斯 Aaron Fors
       路易斯·麦克劳德 Lewis Macleod

◎简  介

  “Diary of a Wimpy Kid: Rodrick Rules,” is an all-new animated movie based on the second book in Jeff Kinney’s wildly popular book series. The original song from the film, “Can You Smell Us Now,” written and produced by Jon Levine, with lyrics by Jeff Kinney, and performed by Jimmy Tatro, is also available. Be sure to check everything out, and don’t forget to watch “Diary of a Wimpy Kid: Rodrick Rules” on December 2, 2022, when it premieres on Disney+.                                    
                                          
      The riotous antics of angst-ridden, disaster-prone middle school student Greg Heffley continue in “Diary of a Wimpy Kid: Rodrick Rules,” focusing this time around on his complicated relationship with older brother Rodrick. A spikey-haired high school student, Rodrick is lazy and undisciplined and spends way too much time practicing with his rock band, Löded Diper. While he loves to torment Greg, he ultimately has a deep affection for his younger brother. Directed by Luke Cormican (“Teen Titans Go!) and written and produced by Jeff Kinney, “Diary of a Wimpy Kid: Rodrick Rules” features the voices of Brady Noon (“The Mighty Ducks: Game Changers”), Ethan William Childress (“mixed-ish”), Edward Asner (“Up”), Chris Diamantopoulos (“Silicon Valley”), Erica Cerra (“Power Rangers”), and Hunter Dillon (“Deadpool 2”). “Diary of a Wimpy Kid: Rodrick Rules” features the original song, “Can You Smell Us Now,” written and produced by Jon Levine, with lyrics by Jeff Kinney, and performed by Jimmy Tatro.



Video
ID           : 1
Format       : HEVC
Format/Info      : High Efficiency Video Coding
Format profile       : Main [email protected]@High
HDR format       : Dolby Vision, Version 1.0, dvhe.08.06, BL+RPU, HDR10 compatible / SMPTE ST 2086, HDR10 compatible
Codec ID         : V_MPEGH/ISO/HEVC
Duration         : 1 h 14 min
Bit rate         : 14.1 Mb/s
Width        : 3 840 pixels
Height       : 2 160 pixels
Display aspect ratio     : 16:9
Frame rate mode      : Constant
Frame rate       : 24.000 FPS
Color space      : YUV
Chroma subsampling       : 4:2:0
Bit depth        : 10 bits
Bits/(Pixel*Frame)       : 0.071
Stream size      : 7.31 GiB (95%)
Default          : Yes
Forced       : No
Color range      : Limited
Color primaries      : BT.2020
Transfer characteristics     : PQ
Matrix coefficients      : BT.2020 non-constant
Mastering display color primaries    : BT.2020
Mastering display luminance      : min: 0.0001 cd/m2, max: 1000 cd/m2

Audio
ID           : 2
Format       : E-AC-3 JOC
Format/Info      : Enhanced AC-3 with Joint Object Coding
Commercial name      : Dolby Digital Plus with Dolby Atmos
Codec ID         : A_EAC3
Duration         : 1 h 14 min
Bit rate mode        : Constant
Bit rate         : 768 kb/s
Channel(s)       : 6 channels
Channel layout       : L R C LFE Ls Rs
Sampling rate        : 48.0 kHz
Frame rate       : 31.250 FPS (1536 SPF)
Compression mode     : Lossy
Stream size      : 407 MiB (5%)
Language         : English
Service kind         : Complete Main
Default          : Yes
Forced       : No
Complexity index     : 16
Number of dynamic objects    : 15
Bed channel count        : 1 channel
Bed channel configuration    : LFE

Text #1
ID           : 3
Format       : UTF-8
Codec ID         : S_TEXT/UTF8
Codec ID/Info        : UTF-8 Plain Text
Duration         : 1 h 9 min
Bit rate         : 68 b/s
Frame rate       : 0.242 FPS
Count of elements        : 1001
Stream size      : 34.7 KiB (0%)
Language         : English
Default          : No
Forced       : No

Text #2
ID           : 4
Format       : UTF-8
Codec ID         : S_TEXT/UTF8
Codec ID/Info        : UTF-8 Plain Text
Duration         : 1 h 13 min
Bit rate         : 78 b/s
Frame rate       : 0.285 FPS
Count of elements        : 1252
Stream size      : 42.2 KiB (0%)
Title        : SDH
Language         : English
Default          : No
Forced       : No

Text #3
ID           : 5
Format       : UTF-8
Codec ID         : S_TEXT/UTF8
Codec ID/Info        : UTF-8 Plain Text
Duration         : 1 h 13 min
Bit rate         : 59 b/s
Frame rate       : 0.220 FPS
Count of elements        : 969
Stream size      : 31.7 KiB (0%)
Language         : Czech
Default          : No
Forced       : No

Text #4
ID           : 6
Format       : UTF-8
Codec ID         : S_TEXT/UTF8
Codec ID/Info        : UTF-8 Plain Text
Duration         : 1 h 13 min
Bit rate         : 56 b/s
Frame rate       : 0.223 FPS
Count of elements        : 983
Stream size      : 30.6 KiB (0%)
Language         : Danish
Default          : No
Forced       : No

Text #5
ID           : 7
Format       : UTF-8
Codec ID         : S_TEXT/UTF8
Codec ID/Info        : UTF-8 Plain Text
Duration         : 1 h 13 min
Bit rate         : 61 b/s
Frame rate       : 0.227 FPS
Count of elements        : 998
Stream size      : 33.0 KiB (0%)
Language         : German
Default          : No
Forced       : No

Text #6
ID           : 8
Format       : UTF-8
Codec ID         : S_TEXT/UTF8
Codec ID/Info        : UTF-8 Plain Text
Duration         : 1 h 13 min
Bit rate         : 99 b/s
Frame rate       : 0.227 FPS
Count of elements        : 999
Stream size      : 53.6 KiB (0%)
Language         : Greek
Default          : No
Forced       : No

Text #7
ID           : 9
Format       : UTF-8
Codec ID         : S_TEXT/UTF8
Codec ID/Info        : UTF-8 Plain Text
Duration         : 1 h 13 min
Bit rate         : 65 b/s
Frame rate       : 0.226 FPS
Count of elements        : 995
Stream size      : 35.1 KiB (0%)
Title        : Latin American
Language         : Spanish
Default          : No
Forced       : No

Text #8
ID           : 10
Format       : UTF-8
Codec ID         : S_TEXT/UTF8
Codec ID/Info        : UTF-8 Plain Text
Duration         : 1 h 13 min
Bit rate         : 64 b/s
Frame rate       : 0.228 FPS
Count of elements        : 1002
Stream size      : 34.8 KiB (0%)
Language         : Spanish
Default          : No
Forced       : No

Text #9
ID           : 11
Format       : UTF-8
Codec ID         : S_TEXT/UTF8
Codec ID/Info        : UTF-8 Plain Text
Duration         : 1 h 13 min
Bit rate         : 61 b/s
Frame rate       : 0.223 FPS
Count of elements        : 980
Stream size      : 32.8 KiB (0%)
Language         : Finnish
Default          : No
Forced       : No

Text #10
ID           : 12
Format       : UTF-8
Codec ID         : S_TEXT/UTF8
Codec ID/Info        : UTF-8 Plain Text
Duration         : 1 h 13 min
Bit rate         : 64 b/s
Frame rate       : 0.227 FPS
Count of elements        : 998
Stream size      : 34.8 KiB (0%)
Language         : French
Default          : No
Forced       : No

Text #11
ID           : 13
Format       : UTF-8
Codec ID         : S_TEXT/UTF8
Codec ID/Info        : UTF-8 Plain Text
Duration         : 1 h 13 min
Bit rate         : 61 b/s
Frame rate       : 0.223 FPS
Count of elements        : 981
Stream size      : 33.3 KiB (0%)
Language         : Hungarian
Default          : No
Forced       : No

Text #12
ID           : 14
Format       : UTF-8
Codec ID         : S_TEXT/UTF8
Codec ID/Info        : UTF-8 Plain Text
Duration         : 1 h 13 min
Bit rate         : 61 b/s
Frame rate       : 0.226 FPS
Count of elements        : 995
Stream size      : 33.0 KiB (0%)
Language         : Italian
Default          : No
Forced       : No

Text #13
ID           : 15
Format       : UTF-8
Codec ID         : S_TEXT/UTF8
Codec ID/Info        : UTF-8 Plain Text
Duration         : 1 h 13 min
Bit rate         : 56 b/s
Frame rate       : 0.226 FPS
Count of elements        : 995
Stream size      : 30.1 KiB (0%)
Language         : Japanese
Default          : No
Forced       : No

Text #14
ID           : 16
Format       : UTF-8
Codec ID         : S_TEXT/UTF8
Codec ID/Info        : UTF-8 Plain Text
Duration         : 1 h 13 min
Bit rate         : 70 b/s
Frame rate       : 0.230 FPS
Count of elements        : 1014
Stream size      : 37.9 KiB (0%)
Language         : Korean
Default          : No
Forced       : No

Text #15
ID           : 17
Format       : UTF-8
Codec ID         : S_TEXT/UTF8
Codec ID/Info        : UTF-8 Plain Text
Duration         : 1 h 13 min
Bit rate         : 56 b/s
Frame rate       : 0.202 FPS
Count of elements        : 890
Stream size      : 30.5 KiB (0%)
Language         : Dutch
Default          : No
Forced       : No

Text #16
ID           : 18
Format       : UTF-8
Codec ID         : S_TEXT/UTF8
Codec ID/Info        : UTF-8 Plain Text
Duration         : 1 h 13 min
Bit rate         : 61 b/s
Frame rate       : 0.220 FPS
Count of elements        : 968
Stream size      : 32.8 KiB (0%)
Language         : Norwegian
Default          : No
Forced       : No

Text #17
ID           : 19
Format       : UTF-8
Codec ID         : S_TEXT/UTF8
Codec ID/Info        : UTF-8 Plain Text
Duration         : 1 h 13 min
Bit rate         : 55 b/s
Frame rate       : 0.227 FPS
Count of elements        : 998
Stream size      : 29.9 KiB (0%)
Language         : Polish
Default          : No
Forced       : No

Text #18
ID           : 20
Format       : UTF-8
Codec ID         : S_TEXT/UTF8
Codec ID/Info        : UTF-8 Plain Text
Duration         : 1 h 13 min
Bit rate         : 61 b/s
Frame rate       : 0.230 FPS
Count of elements        : 1011
Stream size      : 33.0 KiB (0%)
Title        : Brazilian
Language         : Portuguese
Default          : No
Forced       : No

Text #19
ID           : 21
Format       : UTF-8
Codec ID         : S_TEXT/UTF8
Codec ID/Info        : UTF-8 Plain Text
Duration         : 1 h 13 min
Bit rate         : 63 b/s
Frame rate       : 0.227 FPS
Count of elements        : 1001
Stream size      : 34.4 KiB (0%)
Language         : Portuguese
Default          : No
Forced       : No

Text #20
ID           : 22
Format       : UTF-8
Codec ID         : S_TEXT/UTF8
Codec ID/Info        : UTF-8 Plain Text
Duration         : 1 h 13 min
Bit rate         : 60 b/s
Frame rate       : 0.196 FPS
Count of elements        : 863
Stream size      : 32.6 KiB (0%)
Language         : Romanian
Default          : No
Forced       : No

Text #21
ID           : 23
Format       : UTF-8
Codec ID         : S_TEXT/UTF8
Codec ID/Info        : UTF-8 Plain Text
Duration         : 1 h 13 min
Bit rate         : 57 b/s
Frame rate       : 0.224 FPS
Count of elements        : 988
Stream size      : 30.8 KiB (0%)
Language         : Slovak
Default          : No
Forced       : No

Text #22
ID           : 24
Format       : UTF-8
Codec ID         : S_TEXT/UTF8
Codec ID/Info        : UTF-8 Plain Text
Duration         : 1 h 13 min
Bit rate         : 59 b/s
Frame rate       : 0.231 FPS
Count of elements        : 1018
Stream size      : 32.0 KiB (0%)
Language         : Swedish
Default          : No
Forced       : No

Text #23
ID           : 25
Format       : UTF-8
Codec ID         : S_TEXT/UTF8
Codec ID/Info        : UTF-8 Plain Text
Duration         : 1 h 13 min
Bit rate         : 66 b/s
Frame rate       : 0.232 FPS
Count of elements        : 1020
Stream size      : 36.0 KiB (0%)
Language         : Turkish
Default          : No
Forced       : No

Text #24
ID           : 26
Format       : UTF-8
Codec ID         : S_TEXT/UTF8
Codec ID/Info        : UTF-8 Plain Text
Duration         : 1 h 13 min
Bit rate         : 56 b/s
Frame rate       : 0.232 FPS
Count of elements        : 1023
Stream size      : 30.6 KiB (0%)
Title        : Hong Kong
Language         : Chinese
Default          : No
Forced       : No

Text #25
ID           : 27
Format       : UTF-8
Codec ID         : S_TEXT/UTF8
Codec ID/Info        : UTF-8 Plain Text
Duration         : 1 h 13 min
Bit rate         : 56 b/s
Frame rate       : 0.233 FPS
Count of elements        : 1024
Stream size      : 30.6 KiB (0%)
Title        : Simplified
Language         : Chinese
Default          : No
Forced       : No

Text #26
ID           : 28
Format       : UTF-8
Codec ID         : S_TEXT/UTF8
Codec ID/Info        : UTF-8 Plain Text
Duration         : 1 h 13 min
Bit rate         : 57 b/s
Frame rate       : 0.233 FPS
Count of elements        : 1024
Stream size      : 30.6 KiB (0%)
Title        : Traditional
Language         : Chinese
Default          : No
Forced       : No

Menu
00:08:21.000         : en:Scene 1
00:20:56.083         : en:Scene 2
00:34:26.542         : en:Scene 3
00:43:01.500         : en:Scene 4
00:52:08.208         : en:Scene 5
01:03:26.958         : en:Scene 6
01:09:55.208         : en:Credits



第二MP4_D2mp4_小屁孩日记:罗德里克规则 Diary.of.a.Wimpy.Kid.2.Rodrick.Rules.2022.2160p.DSNP.WEB-DL.x265.10bit.HDR.DDP5.1.Atmos-SMURF 7.71 GB
第二MP4_D2mp4_小屁孩日记:罗德里克规则 Diary.of.a.Wimpy.Kid.2.Rodrick.Rules.2022.2160p.DSNP.WEB-DL.x265.10bit.HDR.DDP5.1.Atmos-SMURF 7.71 GB
第二MP4_D2mp4_小屁孩日记:罗德里克规则 Diary.of.a.Wimpy.Kid.2.Rodrick.Rules.2022.2160p.DSNP.WEB-DL.x265.10bit.HDR.DDP5.1.Atmos-SMURF 7.71 GB

磁力链接

magnet:?xt=urn:btih:519934e08647474c45f72396072e896f811b96d9

上传的附件:
最新回复 (0)
返回
本站所有资源均收集自互联网,没有提供影片资源存储, 也未参与录制、上传,若本站收录的资源无意侵犯了您的权益, 请联系邮箱:nsfhetuafkey#gmail.com(#[email protected])