[2022] [欧美] [x265-4K] DIO Dreamers Never Die Dio.Dreamers.Never.Die.2022.2160p.WEB-DL.x265.8bit.SDR.DD5.1-OPUS 12.38 GB

d2mp4 1月前

第二MP4_D2mp4_DIO Dreamers Never Die Dio.Dreamers.Never.Die.2022.2160p.WEB-DL.x265.8bit.SDR.DD5.1-OPUS 12.38 GB

◎片  名 DIO Dreamers Never Die / Untitled Ronnie James Dio documentary
◎年  代 2022
◎产  地 美国
◎类  别 
◎语  言 
◎上映日期 2022-03(西南偏南电影节)
◎IMDb评分  8.7/10 from 241 users
◎IMDb链接  https://www.imdb.com/title/tt11851698/
◎豆瓣评分 /10 from 0 users
◎豆瓣链接 https://movie.douban.com/subject/35760314/
◎片  长 113分钟
◎导  演 唐·阿格特 Don Argott
◎编  剧 
◎主  演 

◎简  介

  The definitive career spanning documentary on heavy metal legend, Ronnie James Dio.



Video
ID           : 1
Format       : HEVC
Format/Info      : High Efficiency Video Coding
Format profile       : [email protected]@Main
Codec ID         : V_MPEGH/ISO/HEVC
Duration         : 1 h 55 min
Bit rate         : 14.9 Mb/s
Width        : 3 840 pixels
Height       : 2 160 pixels
Display aspect ratio     : 16:9
Frame rate mode      : Constant
Frame rate       : 23.976 (24000/1001) FPS
Color space      : YUV
Chroma subsampling       : 4:2:0
Bit depth        : 8 bits
Bits/(Pixel*Frame)       : 0.075
Stream size      : 12.1 GiB (97%)
Writing library      : x265 3.5hy:[Linux][GCC 7.5.0][64 bit] 8bit
Encoding settings        : cpuid=1111039 / frame-threads=2 / wpp / no-pmode / no-pme / no-psnr / no-ssim / log-level=2 / input-csp=1 / input-res=3840x2160 / interlace=0 / total-frames=0 / level-idc=0 / high-tier=1 / uhd-bd=0 / ref=4 / no-allow-non-conformance / repeat-headers / annexb / aud / hrd / info / hash=0 / no-temporal-layers / no-open-gop / min-keyint=48 / keyint=48 / gop-lookahead=0 / bframes=4 / b-adapt=2 / b-pyramid / bframe-bias=0 / rc-lookahead=48 / lookahead-slices=4 / scenecut=0 / hist-scenecut=0 / radl=0 / no-splice / no-intra-refresh / ctu=64 / min-cu-size=8 / rect / no-amp / max-tu-size=32 / tu-inter-depth=1 / tu-intra-depth=1 / limit-tu=0 / rdoq-level=2 / dynamic-rd=0.00 / no-ssim-rd / signhide / no-tskip / nr-intra=100 / nr-inter=200 / no-constrained-intra / strong-intra-smoothing / max-merge=3 / limit-refs=3 / limit-modes / me=3 / subme=3 / merange=57 / temporal-mvp / no-frame-dup / no-hme / weightp / no-weightb / no-analyze-src-pics / deblock=0:0 / no-sao / no-sao-non-deblock / rd=4 / selective-sao=0 / no-early-skip / no-rskip / no-fast-intra / no-tskip-fast / no-cu-lossless / no-b-intra / no-splitrd-skip / rdpenalty=0 / psy-rd=0.00 / psy-rdoq=10.00 / no-rd-refine / no-lossless / cbqpoffs=0 / crqpoffs=0 / rc=abr / bitrate=15000 / qcomp=0.60 / qpstep=1 / stats-write=0 / stats-read=2 / cplxblur=20.0 / qblur=0.5 / vbv-maxrate=18000 / vbv-bufsize=12000 / vbv-init=0.6 / min-vbv-fullness=50.0 / max-vbv-fullness=80.0 / vbv-end=0.6 / vbv-end-fr-adj=0.0 / ipratio=1.10 / pbratio=1.00 / aq-mode=0 / aq-strength=0.00 / no-cutree / zone-count=0 / no-strict-cbr / qg-size=32 / rc-grain / qpmax=69 / qpmin=0 / const-vbv / sar=0 / overscan=0 / videoformat=5 / range=0 / colorprim=1 / transfer=1 / colormatrix=1 / chromaloc=0 / display-window=0 / cll=0,0 / min-luma=0 / max-luma=255 / log2-max-poc-lsb=8 / vui-timing-info / vui-hrd-info / no-concatenation / slices=1 / no-opt-qp-pps / no-opt-ref-list-length-pps / no-multi-pass-opt-rps / scenecut-bias=0.05 / hist-threshold=0.03 / no-opt-cu-delta-qp / no-aq-motion / no-hdr10 / no-hdr10-opt / no-dhdr10-opt / no-idr-recovery-sei / analysis-reuse-level=0 / analysis-save-reuse-level=0 / analysis-load-reuse-level=0 / scale-factor=0 / refine-intra=0 / refine-inter=0 / refine-mv=1 / refine-ctu-distortion=0 / no-limit-sao / ctu-info=0 / no-lowpass-dct / refine-analysis-type=0 / copy-pic=1 / max-ausize-factor=1.0 / no-dynamic-refine / no-single-sei / no-hevc-aq / no-svt / no-field / qp-adaptation-range=1.00 / scenecut-aware-qp=0conformance-window-offsets / right=0 / bottom=0 / decoder-max-rate=0 / no-vbv-live-multi-pass
Language         : English
Default          : Yes
Forced       : No
Color range      : Limited
Color primaries      : BT.709
Transfer characteristics     : BT.709
Matrix coefficients      : BT.709

Audio
ID           : 2
Format       : AC-3
Format/Info      : Audio Coding 3
Commercial name      : Dolby Digital
Codec ID         : A_AC3
Duration         : 1 h 55 min
Bit rate mode        : Constant
Bit rate         : 384 kb/s
Channel(s)       : 6 channels
Channel layout       : L R C LFE Ls Rs
Sampling rate        : 48.0 kHz
Frame rate       : 31.250 FPS (1536 SPF)
Compression mode     : Lossy
Stream size      : 318 MiB (3%)
Title        : English
Language         : English
Service kind         : Complete Main
Default          : Yes
Forced       : No

Text
ID           : 3
Format       : UTF-8
Codec ID         : S_TEXT/UTF8
Codec ID/Info        : UTF-8 Plain Text
Duration         : 1 h 55 min
Bit rate         : 107 b/s
Frame rate       : 0.352 FPS
Count of elements        : 2435
Stream size      : 90.9 KiB (0%)
Title        : English (SDH)
Language         : English
Default          : No
Forced       : No



第二MP4_D2mp4_DIO Dreamers Never Die Dio.Dreamers.Never.Die.2022.2160p.WEB-DL.x265.8bit.SDR.DD5.1-OPUS 12.38 GB
第二MP4_D2mp4_DIO Dreamers Never Die Dio.Dreamers.Never.Die.2022.2160p.WEB-DL.x265.8bit.SDR.DD5.1-OPUS 12.38 GB
第二MP4_D2mp4_DIO Dreamers Never Die Dio.Dreamers.Never.Die.2022.2160p.WEB-DL.x265.8bit.SDR.DD5.1-OPUS 12.38 GB

磁力链接

magnet:?xt=urn:btih:df2c3336056b06bc31f31e46860b563d4a67ea14

上传的附件:
最新回复 (0)
返回
本站所有资源均收集自互联网,没有提供影片资源存储, 也未参与录制、上传,若本站收录的资源无意侵犯了您的权益, 请联系邮箱:nsfhetuafkey#gmail.com(#[email protected])