[2019] [欧美] [喜剧] [x265-4K-HDR] 凯文·哈特:不负责任 Kevin.Hart.Irresponsible.2019.2160p.NF.WEB-DL.x265.10bit.HDR.DDP5.1.Atmos-SiC 7.13 GB

d2mp4 1月前

第二MP4_D2mp4_凯文·哈特:不负责任 Kevin.Hart.Irresponsible.2019.2160p.NF.WEB-DL.x265.10bit.HDR.DDP5.1.Atmos-SiC 7.13 GB

◎片  名 凯文·哈特:不负责任 Kevin Hart: Irresponsible
◎年  代 2019
◎产  地 美国
◎类  别 喜剧
◎语  言 英语
◎上映日期 2019-04-02(美国)
◎IMDb评分  6.5/10 from 4669 users
◎IMDb链接  https://www.imdb.com/title/tt10009796/
◎豆瓣评分 6.7/10 from 1191 users
◎豆瓣链接 https://movie.douban.com/subject/30488016/
◎片  长 60分钟
◎导  演 莱斯利·斯莫尔 Leslie Small
◎编  剧 
◎主  演 凯文·哈特 Kevin Hart

◎简  介

  Netflix定档了凯文·哈特全新喜剧特辑——《凯文·哈特:不负责任》,将于4月2日下午3点首播。在这部全新的喜剧特辑中,凯文·哈特将自己的短处转变为绝佳笑料,和观众从婚姻中所犯的错误,一路谈到亚斯本的惊险刺激经历。这个喜剧特辑录制的是之前在伦敦O2剧院的表演,现场吸引1.5万人观众。



Video
ID           : 1
Format       : HEVC
Format/Info      : High Efficiency Video Coding
Format profile       : Main [email protected]@Main
HDR format       : Dolby Vision, Version 1.0, dvhe.08.06, BL+RPU, HDR10 compatible / SMPTE ST 2086, HDR10 compatible
Codec ID         : V_MPEGH/ISO/HEVC
Duration         : 1 h 0 min
Bit rate         : 16.1 Mb/s
Width        : 3 840 pixels
Height       : 2 160 pixels
Display aspect ratio     : 16:9
Frame rate mode      : Constant
Frame rate       : 23.976 (24000/1001) FPS
Color space      : YUV
Chroma subsampling       : 4:2:0 (Type 2)
Bit depth        : 10 bits
Bits/(Pixel*Frame)       : 0.081
Stream size      : 6.80 GiB (95%)
Default          : Yes
Forced       : No
Color range      : Limited
Color primaries      : BT.2020
Transfer characteristics     : PQ
Matrix coefficients      : BT.2020 non-constant
Mastering display color primaries    : Display P3
Mastering display luminance      : min: 0.0050 cd/m2, max: 4000 cd/m2
Maximum Content Light Level      : 3790 cd/m2
Maximum Frame-Average Light Level    : 99 cd/m2

Audio
ID           : 2
Format       : E-AC-3 JOC
Format/Info      : Enhanced AC-3 with Joint Object Coding
Commercial name      : Dolby Digital Plus with Dolby Atmos
Codec ID         : A_EAC3
Duration         : 1 h 0 min
Bit rate mode        : Constant
Bit rate         : 768 kb/s
Channel(s)       : 6 channels
Channel layout       : L R C LFE Ls Rs
Sampling rate        : 48.0 kHz
Frame rate       : 31.250 FPS (1536 SPF)
Compression mode     : Lossy
Stream size      : 332 MiB (5%)
Language         : English
Service kind         : Complete Main
Default          : Yes
Forced       : No
Complexity index     : 16
Number of dynamic objects    : 15
Bed channel count        : 1 channel
Bed channel configuration    : LFE

Text #1
ID           : 3
Format       : UTF-8
Codec ID         : S_TEXT/UTF8
Codec ID/Info        : UTF-8 Plain Text
Duration         : 58 min 22 s
Bit rate         : 118 b/s
Frame rate       : 0.361 FPS
Count of elements        : 1264
Stream size      : 50.8 KiB (0%)
Language         : English
Default          : No
Forced       : No

Text #2
ID           : 4
Format       : UTF-8
Codec ID         : S_TEXT/UTF8
Codec ID/Info        : UTF-8 Plain Text
Duration         : 59 min 53 s
Bit rate         : 122 b/s
Frame rate       : 0.367 FPS
Count of elements        : 1320
Stream size      : 53.6 KiB (0%)
Title        : SDH
Language         : English
Default          : No
Forced       : No

Text #3
ID           : 5
Format       : UTF-8
Codec ID         : S_TEXT/UTF8
Codec ID/Info        : UTF-8 Plain Text
Duration         : 1 h 0 min
Bit rate         : 202 b/s
Frame rate       : 0.347 FPS
Count of elements        : 1250
Stream size      : 89.2 KiB (0%)
Language         : Arabic
Default          : No
Forced       : No

Text #4
ID           : 6
Format       : UTF-8
Codec ID         : S_TEXT/UTF8
Codec ID/Info        : UTF-8 Plain Text
Duration         : 59 min 42 s
Bit rate         : 115 b/s
Frame rate       : 0.351 FPS
Count of elements        : 1258
Stream size      : 50.4 KiB (0%)
Title        : Simplified
Language         : Chinese
Default          : No
Forced       : No

Text #5
ID           : 7
Format       : UTF-8
Codec ID         : S_TEXT/UTF8
Codec ID/Info        : UTF-8 Plain Text
Duration         : 1 h 0 min
Bit rate         : 109 b/s
Frame rate       : 0.363 FPS
Count of elements        : 1311
Stream size      : 48.1 KiB (0%)
Title        : Traditional
Language         : Chinese
Default          : No
Forced       : No

Text #6
ID           : 8
Format       : UTF-8
Codec ID         : S_TEXT/UTF8
Codec ID/Info        : UTF-8 Plain Text
Duration         : 1 h 0 min
Bit rate         : 94 b/s
Frame rate       : 0.345 FPS
Count of elements        : 1244
Stream size      : 41.6 KiB (0%)
Language         : Czech
Default          : No
Forced       : No

Text #7
ID           : 9
Format       : UTF-8
Codec ID         : S_TEXT/UTF8
Codec ID/Info        : UTF-8 Plain Text
Duration         : 59 min 42 s
Bit rate         : 104 b/s
Frame rate       : 0.348 FPS
Count of elements        : 1245
Stream size      : 45.9 KiB (0%)
Language         : Danish
Default          : No
Forced       : No

Text #8
ID           : 10
Format       : UTF-8
Codec ID         : S_TEXT/UTF8
Codec ID/Info        : UTF-8 Plain Text
Duration         : 58 min 33 s
Bit rate         : 109 b/s
Frame rate       : 0.320 FPS
Count of elements        : 1124
Stream size      : 46.8 KiB (0%)
Language         : Dutch
Default          : No
Forced       : No

Text #9
ID           : 11
Format       : UTF-8
Codec ID         : S_TEXT/UTF8
Codec ID/Info        : UTF-8 Plain Text
Duration         : 59 min 51 s
Bit rate         : 80 b/s
Frame rate       : 0.303 FPS
Count of elements        : 1087
Stream size      : 35.2 KiB (0%)
Language         : Finnish
Default          : No
Forced       : No

Text #10
ID           : 12
Format       : UTF-8
Codec ID         : S_TEXT/UTF8
Codec ID/Info        : UTF-8 Plain Text
Duration         : 59 min 42 s
Bit rate         : 90 b/s
Frame rate       : 0.330 FPS
Count of elements        : 1183
Stream size      : 39.7 KiB (0%)
Language         : French
Default          : No
Forced       : No

Text #11
ID           : 13
Format       : UTF-8
Codec ID         : S_TEXT/UTF8
Codec ID/Info        : UTF-8 Plain Text
Duration         : 59 min 42 s
Bit rate         : 105 b/s
Frame rate       : 0.341 FPS
Count of elements        : 1223
Stream size      : 46.1 KiB (0%)
Language         : German
Default          : No
Forced       : No

Text #12
ID           : 14
Format       : UTF-8
Codec ID         : S_TEXT/UTF8
Codec ID/Info        : UTF-8 Plain Text
Duration         : 1 h 0 min
Bit rate         : 160 b/s
Frame rate       : 0.325 FPS
Count of elements        : 1173
Stream size      : 70.5 KiB (0%)
Language         : Greek
Default          : No
Forced       : No

Text #13
ID           : 15
Format       : UTF-8
Codec ID         : S_TEXT/UTF8
Codec ID/Info        : UTF-8 Plain Text
Duration         : 1 h 0 min
Bit rate         : 157 b/s
Frame rate       : 0.319 FPS
Count of elements        : 1150
Stream size      : 69.5 KiB (0%)
Language         : Hebrew
Default          : No
Forced       : No

Text #14
ID           : 16
Format       : UTF-8
Codec ID         : S_TEXT/UTF8
Codec ID/Info        : UTF-8 Plain Text
Duration         : 58 min 36 s
Bit rate         : 101 b/s
Frame rate       : 0.359 FPS
Count of elements        : 1261
Stream size      : 43.6 KiB (0%)
Language         : Hungarian
Default          : No
Forced       : No

Text #15
ID           : 17
Format       : UTF-8
Codec ID         : S_TEXT/UTF8
Codec ID/Info        : UTF-8 Plain Text
Duration         : 59 min 42 s
Bit rate         : 112 b/s
Frame rate       : 0.341 FPS
Count of elements        : 1221
Stream size      : 49.3 KiB (0%)
Language         : Indonesian
Default          : No
Forced       : No

Text #16
ID           : 18
Format       : UTF-8
Codec ID         : S_TEXT/UTF8
Codec ID/Info        : UTF-8 Plain Text
Duration         : 59 min 42 s
Bit rate         : 105 b/s
Frame rate       : 0.324 FPS
Count of elements        : 1160
Stream size      : 46.1 KiB (0%)
Language         : Italian
Default          : No
Forced       : No

Text #17
ID           : 19
Format       : UTF-8
Codec ID         : S_TEXT/UTF8
Codec ID/Info        : UTF-8 Plain Text
Duration         : 59 min 42 s
Bit rate         : 92 b/s
Frame rate       : 0.330 FPS
Count of elements        : 1182
Stream size      : 40.3 KiB (0%)
Language         : Japanese
Default          : No
Forced       : No

Text #18
ID           : 20
Format       : UTF-8
Codec ID         : S_TEXT/UTF8
Codec ID/Info        : UTF-8 Plain Text
Duration         : 59 min 42 s
Bit rate         : 129 b/s
Frame rate       : 0.349 FPS
Count of elements        : 1250
Stream size      : 56.6 KiB (0%)
Language         : Korean
Default          : No
Forced       : No

Text #19
ID           : 21
Format       : UTF-8
Codec ID         : S_TEXT/UTF8
Codec ID/Info        : UTF-8 Plain Text
Duration         : 1 h 0 min
Bit rate         : 97 b/s
Frame rate       : 0.340 FPS
Count of elements        : 1228
Stream size      : 42.7 KiB (0%)
Language         : Norwegian Bokmal
Default          : No
Forced       : No

Text #20
ID           : 22
Format       : UTF-8
Codec ID         : S_TEXT/UTF8
Codec ID/Info        : UTF-8 Plain Text
Duration         : 59 min 42 s
Bit rate         : 88 b/s
Frame rate       : 0.346 FPS
Count of elements        : 1241
Stream size      : 38.5 KiB (0%)
Language         : Polish
Default          : No
Forced       : No

Text #21
ID           : 23
Format       : UTF-8
Codec ID         : S_TEXT/UTF8
Codec ID/Info        : UTF-8 Plain Text
Duration         : 59 min 33 s
Bit rate         : 108 b/s
Frame rate       : 0.341 FPS
Count of elements        : 1220
Stream size      : 47.2 KiB (0%)
Title        : Brazilian
Language         : Portuguese
Default          : No
Forced       : No

Text #22
ID           : 24
Format       : UTF-8
Codec ID         : S_TEXT/UTF8
Codec ID/Info        : UTF-8 Plain Text
Duration         : 1 h 0 min
Bit rate         : 104 b/s
Frame rate       : 0.345 FPS
Count of elements        : 1244
Stream size      : 46.1 KiB (0%)
Title        : Iberian
Language         : Portuguese
Default          : No
Forced       : No

Text #23
ID           : 25
Format       : UTF-8
Codec ID         : S_TEXT/UTF8
Codec ID/Info        : UTF-8 Plain Text
Duration         : 1 h 0 min
Bit rate         : 120 b/s
Frame rate       : 0.342 FPS
Count of elements        : 1235
Stream size      : 53.1 KiB (0%)
Language         : Romanian
Default          : No
Forced       : No

Text #24
ID           : 26
Format       : UTF-8
Codec ID         : S_TEXT/UTF8
Codec ID/Info        : UTF-8 Plain Text
Duration         : 1 h 0 min
Bit rate         : 159 b/s
Frame rate       : 0.341 FPS
Count of elements        : 1229
Stream size      : 70.3 KiB (0%)
Language         : Russian
Default          : No
Forced       : No

Text #25
ID           : 27
Format       : UTF-8
Codec ID         : S_TEXT/UTF8
Codec ID/Info        : UTF-8 Plain Text
Duration         : 59 min 42 s
Bit rate         : 92 b/s
Frame rate       : 0.319 FPS
Count of elements        : 1142
Stream size      : 40.3 KiB (0%)
Title        : Castilian
Language         : Spanish
Default          : No
Forced       : No

Text #26
ID           : 28
Format       : UTF-8
Codec ID         : S_TEXT/UTF8
Codec ID/Info        : UTF-8 Plain Text
Duration         : 1 h 0 min
Bit rate         : 103 b/s
Frame rate       : 0.347 FPS
Count of elements        : 1252
Stream size      : 45.4 KiB (0%)
Title        : Latin American
Language         : Spanish
Default          : No
Forced       : No

Text #27
ID           : 29
Format       : UTF-8
Codec ID         : S_TEXT/UTF8
Codec ID/Info        : UTF-8 Plain Text
Duration         : 59 min 42 s
Bit rate         : 95 b/s
Frame rate       : 0.308 FPS
Count of elements        : 1105
Stream size      : 41.7 KiB (0%)
Language         : Swedish
Default          : No
Forced       : No

Text #28
ID           : 30
Format       : UTF-8
Codec ID         : S_TEXT/UTF8
Codec ID/Info        : UTF-8 Plain Text
Duration         : 59 min 42 s
Bit rate         : 240 b/s
Frame rate       : 0.348 FPS
Count of elements        : 1246
Stream size      : 105 KiB (0%)
Language         : Thai
Default          : No
Forced       : No

Text #29
ID           : 31
Format       : UTF-8
Codec ID         : S_TEXT/UTF8
Codec ID/Info        : UTF-8 Plain Text
Duration         : 1 h 0 min
Bit rate         : 105 b/s
Frame rate       : 0.310 FPS
Count of elements        : 1117
Stream size      : 46.6 KiB (0%)
Language         : Turkish
Default          : No
Forced       : No

Text #30
ID           : 32
Format       : UTF-8
Codec ID         : S_TEXT/UTF8
Codec ID/Info        : UTF-8 Plain Text
Duration         : 59 min 42 s
Bit rate         : 134 b/s
Frame rate       : 0.352 FPS
Count of elements        : 1260
Stream size      : 58.7 KiB (0%)
Language         : Vietnamese
Default          : No
Forced       : No



第二MP4_D2mp4_凯文·哈特:不负责任 Kevin.Hart.Irresponsible.2019.2160p.NF.WEB-DL.x265.10bit.HDR.DDP5.1.Atmos-SiC 7.13 GB
第二MP4_D2mp4_凯文·哈特:不负责任 Kevin.Hart.Irresponsible.2019.2160p.NF.WEB-DL.x265.10bit.HDR.DDP5.1.Atmos-SiC 7.13 GB
第二MP4_D2mp4_凯文·哈特:不负责任 Kevin.Hart.Irresponsible.2019.2160p.NF.WEB-DL.x265.10bit.HDR.DDP5.1.Atmos-SiC 7.13 GB

磁力链接

magnet:?xt=urn:btih:c73180208b59b8a31384c05a3cdb2681d06ad333

上传的附件:
最新回复 (0)
返回
本站所有资源均收集自互联网,没有提供影片资源存储, 也未参与录制、上传,若本站收录的资源无意侵犯了您的权益, 请联系邮箱:nsfhetuafkey#gmail.com(#[email protected])