[更早] [欧美] [其他] [x265-4K-HDR] 小鬼当家 Home.Alone.1990.2160p.WEB-DL.DDP5.1.DV.MP4.x265-DVSUX 17.82 GB

d2mp4 1月前

第二MP4_D2mp4_小鬼当家 Home.Alone.1990.2160p.WEB-DL.DDP5.1.DV.MP4.x265-DVSUX 17.82 GB

◎片  名 小鬼当家 Home Alone / 宝贝智多星(港) / 独自在家
◎年  代 1990
◎产  地 美国
◎类  别 喜剧 / 家庭 / 犯罪
◎语  言 英语
◎上映日期 1990-11-16
◎IMDb评分  7.7/10 from 568152 users
◎IMDb链接  https://www.imdb.com/title/tt0099785/
◎豆瓣评分 8.4/10 from 367147 users
◎豆瓣链接 https://movie.douban.com/subject/1293088/
◎片  长 103分钟
◎导  演 克里斯·哥伦布 Chris Columbus
◎编  剧 约翰·休斯 John Hughes
◎主  演 麦考利·卡尔金 Macaulay Culkin
       乔·佩西 Joe Pesci
       丹尼尔·斯特恩 Daniel Stern
       约翰·赫德 John Heard
       罗伯茨·布洛瑟姆 Roberts Blossom
       凯瑟琳·欧哈拉 Catherine O'Hara
       安吉拉·戈塔尔斯 Angela Goethals
       戴文·雷特瑞 Devin Ratray
       杰瑞·巴曼 Gerry Bamman
       希拉里·沃尔夫 Hillary Wolf
       约翰·坎迪 John Candy
       拉里·哈金 Larry Hankin
       迈克尔·C·莫罗纳 Michael C. Maronna
       克里斯汀·敏特尔 Kristin Minter
       戴阿娜·坎佩露 Daiana Campeanu
       杰迪代亚·科恩 Jedidiah Cohen
       基南·卡尔金 Kieran Culkin
       森塔·摩西 Senta Moses
       泰利·斯内尔 Terrie Snell
       马特·多赫蒂 Matt Doherty
       拉尔夫·富迪 Ralph Foody
       迈克尔·吉多 Michael Guido
       雷·托勒 Ray Toler
       比莉·伯德 Billie Bird
       比尔·厄尔文 Bill Erwin
       格里·贝克尔 Gerry Becker
       克拉克·德弗洛 Clarke Devereux
       丹尼·沃霍尔 Dan Charles Zukoski
       霍普·戴维斯 Hope Davis
       詹姆斯·雷恩 James Ryan
       肯·哈德森·坎贝尔 Ken Hudson Campbell
       吉姆·奥特莱比 Jim Ortlieb
       莱昂纳尔·巴里摩尔 Lionel Barrymore
       奎因.卡尔金 Quinn Culkin
       拉加·高斯内尔 Raja Gosnell
       詹姆斯·M·赫夫曼 James M. Huffman
       宝拉·纽瑟姆 Paula Newsome
       尤里·鲁特曼 Yuri Rutman
       卢西亚诺·萨贝 Luciano Saber
       阿兰·维尔德 Alan Wilder

◎简  介

  一年一度的圣诞节又到了。全家忙着外出欢度圣诞假期,不料忙中出错,将家里最小的成员——8岁的凯文(麦考利•卡尔金 Macaulay Culkin 饰)留在了家里。爸爸妈妈急坏了,可此时他们已经身在外地,一时亦无可奈何。倒是凯文乐坏了,难得一个人在家,凯文将家里布置成了“游乐场”。                                    
      两个刚出狱的窃贼将目光瞄向了凯文家。当他们鬼鬼祟祟的踏入凯文家时,凯文凭借自己的醒目和家里的“游乐场机关”,和两个笨贼玩起了“游戏”,笑料百出。凯文最后能否这场“游戏”的胜利?

◎获奖情况

  第63届奥斯卡金像奖 (1991)
  最佳原创配乐(提名)
  约翰·威廉姆斯最佳原创歌曲(提名)
  莱斯利·布里克斯 / 约翰·威廉姆斯



Video
ID           : 1
Format       : HEVC
Format/Info      : High Efficiency Video Coding
Format profile       : Main [email protected]@High
HDR format       : Dolby Vision, Version 1.0, dvhe.05.06, BL+RPU
Codec ID         : dvhe
Codec ID/Info        : High Efficiency Video Coding with Dolby Vision
Duration         : 1 h 42 min
Bit rate         : 24.6 Mb/s
Width        : 3 840 pixels
Height       : 2 160 pixels
Display aspect ratio     : 16:9
Frame rate mode      : Constant
Frame rate       : 23.976 (24000/1001) FPS
Color space      : YUV
Chroma subsampling       : 4:2:0 (Type 0)
Bit depth        : 10 bits
Bits/(Pixel*Frame)       : 0.124
Stream size      : 17.6 GiB (99%)
Default          : Yes
Alternate group      : 1
Encoded date         : UTC 2022-12-02 08:26:12
Tagged date      : UTC 2022-12-02 08:30:30
Color range      : Full
Codec configuration box      : hvcC+dvcC

Audio
ID           : 2
Format       : E-AC-3
Format/Info      : Enhanced AC-3
Commercial name      : Dolby Digital Plus
Codec ID         : ec-3
Duration         : 1 h 42 min
Bit rate mode        : Constant
Bit rate         : 256 kb/s
Maximum bit rate     : 270 kb/s
Channel(s)       : 6 channels
Channel layout       : L R C LFE Ls Rs
Sampling rate        : 48.0 kHz
Frame rate       : 31.250 FPS (1536 SPF)
Compression mode     : Lossy
Stream size      : 188 MiB (1%)
Title        : English
Language         : English
Service kind         : Complete Main
Default          : Yes
Alternate group      : 1
Tagged date      : UTC 2022-12-02 08:30:30

Text #1
ID           : 3
Format       : Timed Text
Codec ID         : tx3g
Duration         : 1 h 42 min
Bit rate mode        : Variable
Bit rate         : 132 b/s
Frame rate       : 0.645 FPS
Stream size      : 99.1 KiB (0%)
Title        : English
Language         : English
Forced       : No
Encoded date         : UTC 2022-12-02 08:30:28
Tagged date      : UTC 2022-12-02 08:30:30

Text #2
ID           : 4
Format       : Timed Text
Codec ID         : tx3g
Duration         : 1 h 38 min
Bit rate mode        : Variable
Bit rate         : 64 b/s
Frame rate       : 0.419 FPS
Stream size      : 46.4 KiB (0%)
Title        : English
Language         : English
Forced       : No
Encoded date         : UTC 2022-12-02 08:30:28
Tagged date      : UTC 2022-12-02 08:30:30

Text #3
ID           : 5
Format       : Timed Text
Codec ID         : tx3g
Duration         : 1 h 41 min
Bit rate mode        : Variable
Bit rate         : 77 b/s
Frame rate       : 0.505 FPS
Stream size      : 57.6 KiB (0%)
Title        : English
Language         : English
Forced       : No
Encoded date         : UTC 2022-12-02 08:30:28
Tagged date      : UTC 2022-12-02 08:30:30

Text #4
ID           : 6
Format       : Timed Text
Codec ID         : tx3g
Duration         : 1 h 38 min
Bit rate mode        : Variable
Bit rate         : 40 b/s
Frame rate       : 0.347 FPS
Stream size      : 28.8 KiB (0%)
Title        : Chinese-Cantonese
Language         : Chinese
Forced       : No
Encoded date         : UTC 2022-12-02 08:30:29
Tagged date      : UTC 2022-12-02 08:30:30

Text #5
ID           : 7
Format       : Timed Text
Codec ID         : tx3g
Duration         : 1 h 38 min
Bit rate mode        : Variable
Bit rate         : 51 b/s
Frame rate       : 0.369 FPS
Stream size      : 36.7 KiB (0%)
Title        : Chinese-Simplified
Language         : Chinese
Forced       : No
Encoded date         : UTC 2022-12-02 08:30:29
Tagged date      : UTC 2022-12-02 08:30:30

Text #6
ID           : 8
Format       : Timed Text
Codec ID         : tx3g
Duration         : 1 h 38 min
Bit rate mode        : Variable
Bit rate         : 51 b/s
Frame rate       : 0.365 FPS
Stream size      : 37.0 KiB (0%)
Title        : Chinese-Traditional
Language         : Chinese
Forced       : No
Encoded date         : UTC 2022-12-02 08:30:29
Tagged date      : UTC 2022-12-02 08:30:30

Text #7
ID           : 9
Format       : Timed Text
Codec ID         : tx3g
Duration         : 1 h 38 min
Bit rate mode        : Variable
Bit rate         : 47 b/s
Frame rate       : 0.339 FPS
Stream size      : 33.8 KiB (0%)
Title        : Czech
Language         : Czech
Forced       : No
Encoded date         : UTC 2022-12-02 08:30:29
Tagged date      : UTC 2022-12-02 08:30:30

Text #8
ID           : 10
Format       : Timed Text
Codec ID         : tx3g
Duration         : 1 h 38 min
Bit rate mode        : Variable
Bit rate         : 43 b/s
Frame rate       : 0.253 FPS
Stream size      : 31.5 KiB (0%)
Title        : Danish
Language         : Danish
Forced       : No
Encoded date         : UTC 2022-12-02 08:30:29
Tagged date      : UTC 2022-12-02 08:30:30

Text #9
ID           : 11
Format       : Timed Text
Codec ID         : tx3g
Duration         : 1 h 42 min
Bit rate mode        : Variable
Bit rate         : 44 b/s
Frame rate       : 0.241 FPS
Stream size      : 32.8 KiB (0%)
Title        : Dutch
Language         : Dutch
Forced       : No
Encoded date         : UTC 2022-12-02 08:30:29
Tagged date      : UTC 2022-12-02 08:30:30

Text #10
ID           : 12
Format       : Timed Text
Codec ID         : tx3g
Duration         : 1 h 38 min
Bit rate mode        : Variable
Bit rate         : 47 b/s
Frame rate       : 0.266 FPS
Stream size      : 33.9 KiB (0%)
Title        : Finnish
Language         : Finnish
Forced       : No
Encoded date         : UTC 2022-12-02 08:30:29
Tagged date      : UTC 2022-12-02 08:30:30

Text #11
ID           : 13
Format       : Timed Text
Codec ID         : tx3g
Duration         : 1 h 42 min
Bit rate mode        : Variable
Bit rate         : 61 b/s
Frame rate       : 0.365 FPS
Stream size      : 45.6 KiB (0%)
Title        : French
Language         : French
Forced       : No
Encoded date         : UTC 2022-12-02 08:30:29
Tagged date      : UTC 2022-12-02 08:30:30

Text #12
ID           : 14
Format       : Timed Text
Codec ID         : tx3g
Duration         : 1 h 38 min
Bit rate mode        : Variable
Bit rate         : 56 b/s
Frame rate       : 0.350 FPS
Stream size      : 40.8 KiB (0%)
Title        : German
Language         : German
Forced       : No
Encoded date         : UTC 2022-12-02 08:30:29
Tagged date      : UTC 2022-12-02 08:30:30

Text #13
ID           : 15
Format       : Timed Text
Codec ID         : tx3g
Duration         : 1 h 42 min
Bit rate mode        : Variable
Bit rate         : 62 b/s
Frame rate       : 0.328 FPS
Stream size      : 46.8 KiB (0%)
Title        : Greek
Language         : Greek
Forced       : No
Encoded date         : UTC 2022-12-02 08:30:29
Tagged date      : UTC 2022-12-02 08:30:30

Text #14
ID           : 16
Format       : Timed Text
Codec ID         : tx3g
Duration         : 1 h 38 min
Bit rate mode        : Variable
Bit rate         : 44 b/s
Frame rate       : 0.342 FPS
Stream size      : 31.5 KiB (0%)
Title        : Hungarian
Language         : Hungarian
Forced       : No
Encoded date         : UTC 2022-12-02 08:30:29
Tagged date      : UTC 2022-12-02 08:30:30

Text #15
ID           : 17
Format       : Timed Text
Codec ID         : tx3g
Duration         : 1 h 42 min
Bit rate mode        : Variable
Bit rate         : 56 b/s
Frame rate       : 0.327 FPS
Stream size      : 41.8 KiB (0%)
Title        : Icelandic
Language         : Icelandic
Forced       : No
Encoded date         : UTC 2022-12-02 08:30:29
Tagged date      : UTC 2022-12-02 08:30:30

Text #16
ID           : 18
Format       : Timed Text
Codec ID         : tx3g
Duration         : 1 h 42 min
Bit rate mode        : Variable
Bit rate         : 53 b/s
Frame rate       : 0.333 FPS
Stream size      : 39.5 KiB (0%)
Title        : Italian
Language         : Italian
Forced       : No
Encoded date         : UTC 2022-12-02 08:30:29
Tagged date      : UTC 2022-12-02 08:30:30

Text #17
ID           : 19
Format       : Timed Text
Codec ID         : tx3g
Duration         : 1 h 38 min
Bit rate mode        : Variable
Bit rate         : 40 b/s
Frame rate       : 0.320 FPS
Stream size      : 28.9 KiB (0%)
Title        : Japanese
Language         : Japanese
Forced       : No
Encoded date         : UTC 2022-12-02 08:30:30
Tagged date      : UTC 2022-12-02 08:30:30

Text #18
ID           : 20
Format       : Timed Text
Codec ID         : tx3g
Duration         : 1 h 42 min
Bit rate mode        : Variable
Bit rate         : 46 b/s
Frame rate       : 0.341 FPS
Stream size      : 34.2 KiB (0%)
Title        : Korean
Language         : Korean
Forced       : No
Encoded date         : UTC 2022-12-02 08:30:30
Tagged date      : UTC 2022-12-02 08:30:30

Text #19
ID           : 21
Format       : Timed Text
Codec ID         : tx3g
Duration         : 1 h 38 min
Bit rate mode        : Variable
Bit rate         : 42 b/s
Frame rate       : 0.257 FPS
Stream size      : 30.3 KiB (0%)
Title        : Norwegian
Language         : Norwegian
Forced       : No
Encoded date         : UTC 2022-12-02 08:30:30
Tagged date      : UTC 2022-12-02 08:30:30

Text #20
ID           : 22
Format       : Timed Text
Codec ID         : tx3g
Duration         : 1 h 38 min
Bit rate mode        : Variable
Bit rate         : 44 b/s
Frame rate       : 0.347 FPS
Stream size      : 31.8 KiB (0%)
Title        : Polish
Language         : Polish
Forced       : No
Encoded date         : UTC 2022-12-02 08:30:30
Tagged date      : UTC 2022-12-02 08:30:30

Text #21
ID           : 23
Format       : Timed Text
Codec ID         : tx3g
Duration         : 1 h 38 min
Bit rate mode        : Variable
Bit rate         : 55 b/s
Frame rate       : 0.345 FPS
Stream size      : 39.7 KiB (0%)
Title        : Portuguese
Language         : Portuguese
Forced       : No
Encoded date         : UTC 2022-12-02 08:30:30
Tagged date      : UTC 2022-12-02 08:30:30

Text #22
ID           : 24
Format       : Timed Text
Codec ID         : tx3g
Duration         : 1 h 38 min
Bit rate mode        : Variable
Bit rate         : 49 b/s
Frame rate       : 0.363 FPS
Stream size      : 35.2 KiB (0%)
Title        : Portuguese-BR
Language         : Portuguese
Forced       : No
Encoded date         : UTC 2022-12-02 08:30:30
Tagged date      : UTC 2022-12-02 08:30:30

Text #23
ID           : 25
Format       : Timed Text
Codec ID         : tx3g
Duration         : 1 h 42 min
Bit rate mode        : Variable
Bit rate         : 52 b/s
Frame rate       : 0.337 FPS
Stream size      : 39.4 KiB (0%)
Title        : Romanian
Language         : Romanian
Forced       : No
Encoded date         : UTC 2022-12-02 08:30:30
Tagged date      : UTC 2022-12-02 08:30:30

Text #24
ID           : 26
Format       : Timed Text
Codec ID         : tx3g
Duration         : 1 h 38 min
Bit rate mode        : Variable
Bit rate         : 46 b/s
Frame rate       : 0.290 FPS
Stream size      : 33.1 KiB (0%)
Title        : Spanish
Language         : Spanish
Forced       : No
Encoded date         : UTC 2022-12-02 08:30:30
Tagged date      : UTC 2022-12-02 08:30:30

Text #25
ID           : 27
Format       : Timed Text
Codec ID         : tx3g
Duration         : 1 h 38 min
Bit rate mode        : Variable
Bit rate         : 45 b/s
Frame rate       : 0.343 FPS
Stream size      : 32.8 KiB (0%)
Title        : Spanish-EU
Language         : Spanish
Forced       : No
Encoded date         : UTC 2022-12-02 08:30:30
Tagged date      : UTC 2022-12-02 08:30:30

Text #26
ID           : 28
Format       : Timed Text
Codec ID         : tx3g
Duration         : 1 h 38 min
Bit rate mode        : Variable
Bit rate         : 43 b/s
Frame rate       : 0.253 FPS
Stream size      : 30.9 KiB (0%)
Title        : Swedish
Language         : Swedish
Forced       : No
Encoded date         : UTC 2022-12-02 08:30:30
Tagged date      : UTC 2022-12-02 08:30:30

Text #27
ID           : 29
Format       : Timed Text
Codec ID         : tx3g
Duration         : 1 h 42 min
Bit rate mode        : Variable
Bit rate         : 51 b/s
Frame rate       : 0.329 FPS
Stream size      : 38.0 KiB (0%)
Title        : Turkish
Language         : Turkish
Forced       : No
Encoded date         : UTC 2022-12-02 08:30:30
Tagged date      : UTC 2022-12-02 08:30:30



There is a very limited amount of devices that can play dv muxed this way so keep that in mind before downloading.

Screenshots are tonemapped to 8bit SDR for compatibility

第二MP4_D2mp4_小鬼当家 Home.Alone.1990.2160p.WEB-DL.DDP5.1.DV.MP4.x265-DVSUX 17.82 GB
第二MP4_D2mp4_小鬼当家 Home.Alone.1990.2160p.WEB-DL.DDP5.1.DV.MP4.x265-DVSUX 17.82 GB
第二MP4_D2mp4_小鬼当家 Home.Alone.1990.2160p.WEB-DL.DDP5.1.DV.MP4.x265-DVSUX 17.82 GB

磁力链接

magnet:?xt=urn:btih:72856cad807e42f641617d026a5cf670b7b5d309

上传的附件:
最新回复 (0)
返回
本站所有资源均收集自互联网,没有提供影片资源存储, 也未参与录制、上传,若本站收录的资源无意侵犯了您的权益, 请联系邮箱:nsfhetuafkey#gmail.com(#[email protected])