[更早] [日本] [恐怖] [x264-1080P] 咒怨 录像带版 Ju-on.The.Curse.2000.JAPANESE.1080p.BluRay.H264.AAC-VXT 1.34 GB

d2mp4 4天前

第二MP4_D2mp4_咒怨 录像带版 Ju-on.The.Curse.2000.JAPANESE.1080p.BluRay.H264.AAC-VXT 1.34 GB

◎片  名 咒怨 录像带版 呪怨 ビデオオリジナル版 / Ju-on
◎年  代 2000
◎产  地 日本
◎类  别 悬疑 / 恐怖
◎语  言 日语
◎上映日期 2000-03-18
◎IMDb评分  6.8/10 from 8234 users
◎IMDb链接  https://www.imdb.com/title/tt0330500/
◎豆瓣评分 8.0/10 from 19958 users
◎豆瓣链接 https://movie.douban.com/subject/1461079/
◎片  长 70 分钟
◎导  演 清水崇 Takashi Shimizu
◎编  剧 清水崇 Takashi Shimizu
◎主  演 藤贵子 Takako Fuji
       大家由祐子 Yûko Daike
       柳忧怜 Yûrei Yanagi
       小山僚太 Ryôta Koyama
       栗山千明 Chiaki Kuriyama
       三轮瞳 Hitomi Miwa
       三轮明日美 Asumi Miwa
       松山鹰志 Takashi Matsuyama
       芦川诚 Makoto Ashikawa
       优恵 Yue
       吉行由实 Yumi Yoshiyuki
       洞口依子 Yoriko Douguchi
       绪方义博 Denden
       诹访太朗 Tarô Suwa
       并木史郎 Shirô Namiki
       藤井香织 Kaori Fujii
       翁华荣 Hua Rong Weng
       斋藤茧子 Mayuko Saitô
       芹泽礼多 Reita Serizawa

◎简  介

  名叫佐伯俊雄(小山僚太 饰)的男孩多日未曾上课,他的级任教师小林俊介(柳优怜 饰)按照地址登门拜访,发现家里乱七八糟,臭气熏天,而独自在家的俊雄则浑身是伤,精神恍惚。俊雄的父母行踪不明,他的妈妈伽椰子(藤贵子 饰)是小林大学时代的同学,且一直对小林心存爱慕,但是这份心思为伽椰子乃至她身边所有的人带来难以预料的悲剧。村上一家搬入一幢独栋房产,在一个毫无征兆的日子里,厄运忽然降临,无论是村上一家还是与之相关的家庭教师(三轮ひとみ 饰)、异性好友(栗山千明 饰),皆遭遇了令人不寒而栗的恐怖恶灵。                                    
      咒怨最为恐怖的故事缓缓拉开序幕……



Video
ID           : 1
Format       : AVC
Format/Info      : Advanced Video Codec
Format profile       : [email protected]
Format settings      : CABAC / 4 Ref Frames
Format settings, CABAC       : Yes
Format settings, Reference frames    : 4 frames
Codec ID         : avc1
Codec ID/Info        : Advanced Video Coding
Duration         : 1 h 10 min
Bit rate         : 2 500 kb/s
Width        : 1 428 pixels
Height       : 1 080 pixels
Display aspect ratio     : 4:3
Frame rate mode      : Constant
Frame rate       : 29.970 (29970/1000) FPS
Color space      : YUV
Chroma subsampling       : 4:2:0
Bit depth        : 8 bits
Scan type        : Progressive
Bits/(Pixel*Frame)       : 0.054
Stream size      : 1.23 GiB (91%)
Writing library      : x264 core 152 r2851M ba24899
Encoding settings        : cabac=1 / ref=4 / deblock=1:-1:-1 / analyse=0x3:0x113 / me=umh / subme=9 / psy=1 / psy_rd=1.00:0.15 / mixed_ref=1 / me_range=24 / chroma_me=1 / trellis=2 / 8x8dct=1 / cqm=0 / deadzone=21,11 / fast_pskip=1 / chroma_qp_offset=-3 / threads=32 / lookahead_threads=4 / sliced_threads=0 / nr=0 / decimate=1 / interlaced=0 / bluray_compat=0 / constrained_intra=0 / bframes=3 / b_pyramid=2 / b_adapt=2 / b_bias=0 / direct=3 / weightb=1 / open_gop=0 / weightp=2 / keyint=250 / keyint_min=25 / scenecut=40 / intra_refresh=0 / rc_lookahead=50 / rc=2pass / mbtree=1 / bitrate=2500 / ratetol=1.0 / qcomp=0.60 / qpmin=0 / qpmax=69 / qpstep=4 / cplxblur=20.0 / qblur=0.5 / vbv_maxrate=31250 / vbv_bufsize=31250 / nal_hrd=none / filler=0 / ip_ratio=1.40 / aq=3:1.00
Encoded date         : UTC 2023-01-24 16:00:58
Tagged date      : UTC 2023-01-24 16:00:58
Codec configuration box      : avcC

Audio
ID           : 2
Format       : AAC LC
Format/Info      : Advanced Audio Codec Low Complexity
Codec ID         : mp4a-40-2
Duration         : 1 h 10 min
Bit rate mode        : Constant
Bit rate         : 224 kb/s
Channel(s)       : 2 channels
Channel layout       : L R
Sampling rate        : 48.0 kHz
Frame rate       : 46.875 FPS (1024 SPF)
Compression mode     : Lossy
Stream size      : 113 MiB (8%)
Language         : Japanese
Default          : Yes
Alternate group      : 1
Encoded date         : UTC 2023-01-24 16:00:58
Tagged date      : UTC 2023-01-24 16:00:58



第二MP4_D2mp4_咒怨 录像带版 Ju-on.The.Curse.2000.JAPANESE.1080p.BluRay.H264.AAC-VXT 1.34 GB
第二MP4_D2mp4_咒怨 录像带版 Ju-on.The.Curse.2000.JAPANESE.1080p.BluRay.H264.AAC-VXT 1.34 GB
第二MP4_D2mp4_咒怨 录像带版 Ju-on.The.Curse.2000.JAPANESE.1080p.BluRay.H264.AAC-VXT 1.34 GB

磁力链接

magnet:?xt=urn:btih:7c3911b2a177e03b9553c4652dfc05dd62bde224

上传的附件:
最新回复 (0)
返回
本站所有资源均收集自互联网,没有提供影片资源存储, 也未参与录制、上传,若本站收录的资源无意侵犯了您的权益, 请联系邮箱:nsfhetuafkey#gmail.com(#[email protected])