[更早] [日本] [恐怖] [x264-1080P] 咒怨2 录像带版 Ju-on.The.Curse.2.2000.JAPANESE.1080p.BluRay.H264.AAC-VXT 1.44 GB

d2mp4 4天前

第二MP4_D2mp4_咒怨2 录像带版 Ju-on.The.Curse.2.2000.JAPANESE.1080p.BluRay.H264.AAC-VXT 1.44 GB

◎片  名 咒怨2 录像带版 呪怨2 ビデオオリジナル版 / Ju-on 2 / 咒怨 录像带版2
◎年  代 2000
◎产  地 日本
◎类  别 恐怖
◎语  言 日语
◎上映日期 2000-04-14
◎IMDb评分  6.0/10 from 3624 users
◎IMDb链接  https://www.imdb.com/title/tt0330501/
◎豆瓣评分 7.7/10 from 8224 users
◎豆瓣链接 https://movie.douban.com/subject/3393386/
◎片  长 76 分钟
◎导  演 清水崇 Takashi Shimizu
◎编  剧 清水崇 Takashi Shimizu
◎主  演 大家由祐子 Yûko Daike
       藤井香织 Kaori Fujii
       藤贵子 Takako Fuji
       芦川诚 Makoto Ashikawa
       小山僚太 Ryôta Koyama
       柳忧怜 Yûrei Yanagi
       松山鹰志 Takashi Matsuyama
       郭智博 Tomohiro Kaku
       斋藤茧子 Mayuko Saitô
       绪方义博 Denden
       诹访太朗 Tarô Suwa
       芹泽礼多 Reita Serizawa
       市原隼人 Hayato Ichihara
       米泽史织 Shiori Yonezawa
       宫崎真汐 Mashio Miyazaki
       志水季里子 Kiriko Shimizu
       优恵 Yue
       邓肯 Dankan
       翁华荣 Hua Rong Weng

◎简  介

  由于俊雄多日未到学校上课,他的班主任小林俊介(柳忧怜 饰)赶来家访,看到精神恍惚、举止怪异的俊雄,并获悉川又伽椰子对自己的心意。这时他接到佐伯刚雄的电话,得知怀孕的妻子已被对方残忍杀害,与此同时,被杀死的伽椰子也出现他的面前。惨案不久,通灵者铃木响子(大家由佑子 饰)受经营地产中介的弟弟达也(芦川诚 饰)之托调查佐伯家房子的情况。响子向弟弟提出忠告,但她很快便发现厄运已经找到她和侄子信之的头上。另一方面,购买这幢房子的北田夫妻也开始了他们恐怖诡异的生活。咒怨不灭,死者连连……                                    
      本片为咒怨系列OV版第二部。



Video
ID           : 1
Format       : AVC
Format/Info      : Advanced Video Codec
Format profile       : [email protected]
Format settings      : CABAC / 4 Ref Frames
Format settings, CABAC       : Yes
Format settings, Reference frames    : 4 frames
Codec ID         : avc1
Codec ID/Info        : Advanced Video Coding
Duration         : 1 h 15 min
Bit rate         : 2 500 kb/s
Width        : 1 428 pixels
Height       : 1 080 pixels
Display aspect ratio     : 4:3
Frame rate mode      : Constant
Frame rate       : 29.970 (29970/1000) FPS
Color space      : YUV
Chroma subsampling       : 4:2:0
Bit depth        : 8 bits
Scan type        : Progressive
Bits/(Pixel*Frame)       : 0.054
Stream size      : 1.32 GiB (91%)
Writing library      : x264 core 152 r2851M ba24899
Encoding settings        : cabac=1 / ref=4 / deblock=1:-1:-1 / analyse=0x3:0x113 / me=umh / subme=9 / psy=1 / psy_rd=1.00:0.15 / mixed_ref=1 / me_range=24 / chroma_me=1 / trellis=2 / 8x8dct=1 / cqm=0 / deadzone=21,11 / fast_pskip=1 / chroma_qp_offset=-3 / threads=32 / lookahead_threads=4 / sliced_threads=0 / nr=0 / decimate=1 / interlaced=0 / bluray_compat=0 / constrained_intra=0 / bframes=3 / b_pyramid=2 / b_adapt=2 / b_bias=0 / direct=3 / weightb=1 / open_gop=0 / weightp=2 / keyint=250 / keyint_min=25 / scenecut=40 / intra_refresh=0 / rc_lookahead=50 / rc=2pass / mbtree=1 / bitrate=2500 / ratetol=1.0 / qcomp=0.60 / qpmin=0 / qpmax=69 / qpstep=4 / cplxblur=20.0 / qblur=0.5 / vbv_maxrate=31250 / vbv_bufsize=31250 / nal_hrd=none / filler=0 / ip_ratio=1.40 / aq=3:1.00
Encoded date         : UTC 2023-01-24 16:32:08
Tagged date      : UTC 2023-01-24 16:32:08
Codec configuration box      : avcC

Audio
ID           : 2
Format       : AAC LC
Format/Info      : Advanced Audio Codec Low Complexity
Codec ID         : mp4a-40-2
Duration         : 1 h 15 min
Bit rate mode        : Constant
Bit rate         : 224 kb/s
Channel(s)       : 2 channels
Channel layout       : L R
Sampling rate        : 48.0 kHz
Frame rate       : 46.875 FPS (1024 SPF)
Compression mode     : Lossy
Stream size      : 121 MiB (8%)
Language         : Japanese
Default          : Yes
Alternate group      : 1
Encoded date         : UTC 2023-01-24 16:32:08
Tagged date      : UTC 2023-01-24 16:32:08



第二MP4_D2mp4_咒怨2 录像带版 Ju-on.The.Curse.2.2000.JAPANESE.1080p.BluRay.H264.AAC-VXT 1.44 GB
第二MP4_D2mp4_咒怨2 录像带版 Ju-on.The.Curse.2.2000.JAPANESE.1080p.BluRay.H264.AAC-VXT 1.44 GB
第二MP4_D2mp4_咒怨2 录像带版 Ju-on.The.Curse.2.2000.JAPANESE.1080p.BluRay.H264.AAC-VXT 1.44 GB

磁力链接

magnet:?xt=urn:btih:c27692c593045ad6edbb2210b8385f8ac6231dd4

上传的附件:
最新回复 (0)
返回
本站所有资源均收集自互联网,没有提供影片资源存储, 也未参与录制、上传,若本站收录的资源无意侵犯了您的权益, 请联系邮箱:nsfhetuafkey#gmail.com(#[email protected])