[2014] [欧美] [x264-1080P] 绝版影院 Out.of.Print.2014.1080p.AMZN.WEBRip.DDP2.0.x264-monkee 4.97 GB

d2mp4 4天前

第二MP4_D2mp4_绝版影院 Out.of.Print.2014.1080p.AMZN.WEBRip.DDP2.0.x264-monkee 4.97 GB

◎片  名 绝版影院 Out of Print
◎年  代 2014
◎产  地 美国
◎类  别 
◎语  言 英语
◎上映日期 2014-08-23
◎IMDb评分  6.7/10 from 396 users
◎IMDb链接  https://www.imdb.com/title/tt2393917/
◎豆瓣评分 /10 from 0 users
◎豆瓣链接 https://movie.douban.com/subject/26154793/
◎片  长 86分钟
◎导  演 
◎编  剧 
◎主  演 

◎简  介

  A documentary exploring the importance of revival cinema and 35mm exhibition - seen through the lens of the patrons of the New Beverly Cinema - a unique and independent revival cinema in Los Angeles.



Video
ID        : 1
Format       : AVC
Format/Info      : Advanced Video Codec
Format profile      : [email protected]
Format settings      : CABAC / 4 Ref Frames
Format settings, CABAC    : Yes
Format settings, Reference frames  : 4 frames
Codec ID       : V_MPEG4/ISO/AVC
Duration       : 1 h 27 min
Bit rate mode      : Variable
Bit rate       : 7 916 kb/s
Maximum bit rate     : 15.0 Mb/s
Width        : 1 920 pixels
Height       : 1 080 pixels
Display aspect ratio     : 16:9
Frame rate mode      : Constant
Frame rate       : 23.976 (24000/1001) FPS
Color space      : YUV
Chroma subsampling     : 4:2:0
Bit depth       : 8 bits
Scan type       : Progressive
Bits/(Pixel*Frame)     : 0.159
Stream size      : 4.83 GiB (97%)
Default       : Yes
Forced       : No
Color range      : Limited
Color primaries      : BT.709
Transfer characteristics    : BT.709
Matrix coefficients     : BT.709

Audio
ID        : 2
Format       : E-AC-3
Format/Info      : Enhanced AC-3
Commercial name      : Dolby Digital Plus
Codec ID       : A_EAC3
Duration       : 1 h 27 min
Bit rate mode      : Constant
Bit rate       : 224 kb/s
Channel(s)       : 2 channels
Channel layout      : L R
Sampling rate      : 48.0 kHz
Frame rate       : 31.250 FPS (1536 SPF)
Compression mode     : Lossy
Stream size      : 140 MiB (3%)
Language       : English
Service kind      : Complete Main
Default       : Yes
Forced       : No

Text
ID        : 3
Format       : UTF-8
Codec ID       : S_TEXT/UTF8
Codec ID/Info      : UTF-8 Plain Text
Duration       : 1 h 26 min
Bit rate       : 114 b/s
Frame rate       : 0.340 FPS
Count of elements     : 1769
Stream size      : 72.7 KiB (0%)
Language       : English
Default       : No
Forced       : No


第二MP4_D2mp4_绝版影院 Out.of.Print.2014.1080p.AMZN.WEBRip.DDP2.0.x264-monkee 4.97 GB
第二MP4_D2mp4_绝版影院 Out.of.Print.2014.1080p.AMZN.WEBRip.DDP2.0.x264-monkee 4.97 GB
第二MP4_D2mp4_绝版影院 Out.of.Print.2014.1080p.AMZN.WEBRip.DDP2.0.x264-monkee 4.97 GB

磁力链接

magnet:?xt=urn:btih:9c5e91511e23f3cab5470d52d0924deb9430849a
上传的附件:
最新回复 (0)
返回
本站所有资源均收集自互联网,没有提供影片资源存储, 也未参与录制、上传,若本站收录的资源无意侵犯了您的权益, 请联系邮箱:nsfhetuafkey#gmail.com(#[email protected])