[2017] [欧美] [战争] [x264-1080P] 抗与命 Resistance.is.Life.2017.TURKISH.1080p.AMZN.WEBRip.DDP5.1.x264-SbR 4.93 GB

d2mp4 4天前

第二MP4_D2mp4_抗与命 Resistance.is.Life.2017.TURKISH.1080p.AMZN.WEBRip.DDP5.1.x264-SbR 4.93 GB

◎片  名 抗与命 Resistance is Life
◎年  代 2017
◎产  地 美国 / 土耳其 Turkey
◎类  别 纪录片 / 战争
◎语  言 Kurdish / 土耳其語 Turkish
◎上映日期 
◎IMDb评分  8.3/10 from 4161 users
◎IMDb链接  https://www.imdb.com/title/tt7097772/
◎豆瓣评分 /10 from 0 users
◎豆瓣链接 https://movie.douban.com/subject/27166052/
◎片  长 73分钟
◎导  演 
◎编  剧 
◎主  演 

◎简  介

  From a refugee camp on the Turkish-Syrian border, an 8-year-old girl, EVLIN, characterizes the resistance of her homeland. Her heroes, the Kurdish female fighters, are defending the city of Kobane against the onslaught by ISIS militants. The power of the human spirit emanates through Evlin as she shows us that hope and resilience prevail even in the most tragic of circumstances. Evlin takes us on a journey that introduces the many different faces of the resistance on both sides of the border and provides a unique look at the extraordinary spirit behind the first major victory against ISIS.



Video
ID           : 1
Format       : AVC
Format/Info      : Advanced Video Codec
Format profile       : [email protected]
Format settings      : CABAC / 4 Ref Frames
Format settings, CABAC       : Yes
Format settings, Reference frames    : 4 frames
Codec ID         : V_MPEG4/ISO/AVC
Duration         : 1 h 12 min
Bit rate mode        : Constant
Bit rate         : 9 057 kb/s
Nominal bit rate     : 10 000 kb/s
Width        : 1 920 pixels
Height       : 1 080 pixels
Display aspect ratio     : 16:9
Frame rate mode      : Constant
Frame rate       : 23.976 (24000/1001) FPS
Color space      : YUV
Chroma subsampling       : 4:2:0
Bit depth        : 8 bits
Scan type        : Progressive
Bits/(Pixel*Frame)       : 0.182
Stream size      : 4.61 GiB (93%)
Language         : Turkish
Default          : Yes
Forced       : No
Color range      : Limited
Color primaries      : BT.709
Transfer characteristics     : BT.709
Matrix coefficients      : BT.709

Audio
ID           : 2
Format       : E-AC-3
Format/Info      : Enhanced AC-3
Commercial name      : Dolby Digital Plus
Codec ID         : A_EAC3
Duration         : 1 h 12 min
Bit rate mode        : Constant
Bit rate         : 640 kb/s
Channel(s)       : 6 channels
Channel layout       : L R C LFE Ls Rs
Sampling rate        : 48.0 kHz
Frame rate       : 31.250 FPS (1536 SPF)
Compression mode     : Lossy
Stream size      : 333 MiB (7%)
Title        : Turkish
Language         : Turkish
Service kind         : Complete Main
Default          : Yes
Forced       : No

Text #1
ID           : 3
Format       : UTF-8
Codec ID         : S_TEXT/UTF8
Codec ID/Info        : UTF-8 Plain Text
Duration         : 1 h 10 min
Bit rate         : 61 b/s
Frame rate       : 0.219 FPS
Count of elements        : 927
Stream size      : 31.8 KiB (0%)
Title        : SDH
Language         : English
Default          : Yes
Forced       : No

Text #2
ID           : 4
Format       : UTF-8
Codec ID         : S_TEXT/UTF8
Codec ID/Info        : UTF-8 Plain Text
Duration         : 1 h 10 min
Bit rate         : 63 b/s
Frame rate       : 0.183 FPS
Count of elements        : 774
Stream size      : 32.9 KiB (0%)
Title        : German
Language         : German
Default          : No
Forced       : No

Text #3
ID           : 5
Format       : UTF-8
Codec ID         : S_TEXT/UTF8
Codec ID/Info        : UTF-8 Plain Text
Duration         : 1 h 10 min
Bit rate         : 61 b/s
Frame rate       : 0.188 FPS
Count of elements        : 792
Stream size      : 31.9 KiB (0%)
Title        : SDH
Language         : Spanish
Default          : No
Forced       : No

Text #4
ID           : 6
Format       : UTF-8
Codec ID         : S_TEXT/UTF8
Codec ID/Info        : UTF-8 Plain Text
Duration         : 1 h 10 min
Bit rate         : 64 b/s
Frame rate       : 0.187 FPS
Count of elements        : 792
Stream size      : 33.4 KiB (0%)
Title        : SDH
Language         : Spanish
Default          : No
Forced       : No

Text #5
ID           : 7
Format       : UTF-8
Codec ID         : S_TEXT/UTF8
Codec ID/Info        : UTF-8 Plain Text
Duration         : 1 h 10 min
Bit rate         : 62 b/s
Frame rate       : 0.184 FPS
Count of elements        : 775
Stream size      : 32.3 KiB (0%)
Title        : SDH
Language         : French
Default          : No
Forced       : No

Text #6
ID           : 8
Format       : UTF-8
Codec ID         : S_TEXT/UTF8
Codec ID/Info        : UTF-8 Plain Text
Duration         : 1 h 10 min
Bit rate         : 60 b/s
Frame rate       : 0.182 FPS
Count of elements        : 769
Stream size      : 31.3 KiB (0%)
Title        : SDH
Language         : Italian
Default          : No
Forced       : No



第二MP4_D2mp4_抗与命 Resistance.is.Life.2017.TURKISH.1080p.AMZN.WEBRip.DDP5.1.x264-SbR 4.93 GB
第二MP4_D2mp4_抗与命 Resistance.is.Life.2017.TURKISH.1080p.AMZN.WEBRip.DDP5.1.x264-SbR 4.93 GB
第二MP4_D2mp4_抗与命 Resistance.is.Life.2017.TURKISH.1080p.AMZN.WEBRip.DDP5.1.x264-SbR 4.93 GB

磁力链接

magnet:?xt=urn:btih:76e81ff2a9573ca1cbf31a7bd6276f22bfe13fc7

上传的附件:
最新回复 (0)
返回
本站所有资源均收集自互联网,没有提供影片资源存储, 也未参与录制、上传,若本站收录的资源无意侵犯了您的权益, 请联系邮箱:nsfhetuafkey#gmail.com(#[email protected])