[2021] [欧美] [剧情] [x264-1080P] 我所有微不足道的悲伤 All.My.Puny.Sorrows.2021.1080p.BluRay.x264-WoAT 10.00 GB

d2mp4 4天前

第二MP4_D2mp4_我所有微不足道的悲伤 All.My.Puny.Sorrows.2021.1080p.BluRay.x264-WoAT 10.00 GB

◎片  名 我所有微不足道的悲伤 All My Puny Sorrows / 尤兰蒂的小忧愁 / 亲爱的小小忧愁
◎年  代 2021
◎产  地 加拿大
◎类  别 剧情
◎语  言 英语
◎上映日期 2021-09-10(多伦多电影节) / 2022-05-04(加拿大)
◎IMDb评分  6.1/10 from 445 users
◎IMDb链接  https://www.imdb.com/title/tt13588156/
◎豆瓣评分 /10 from 0 users
◎豆瓣链接 https://movie.douban.com/subject/35545515/
◎片  长 103分钟
◎导  演 麦克·迈克高文 Michael McGowan
◎编  剧 麦克·迈克高文 Michael McGowan
       米里娅姆·特夫斯 Miriam Toews
◎主  演 莎拉·加顿 Sarah Gadon
       艾丽森·皮尔 Alison Pill
       唐纳尔·罗格 Donal Logue
       艾米贝丝·麦克纳尔蒂 Amybeth McNulty
       伊丽莎白·桑德斯 Elizabeth Saunders
       博伊德·班克斯 Boyd Banks
       瑞克·罗伯茨 Rick Roberts
       多夫·蒂芬巴奇 Dov Tiefenbach
       马丁·罗奇 Martin Roach
       米米·库兹克 Mimi Kuzyk
       梅尔·温宁汉姆 Mare Winningham

◎简  介

  Based on the international best-selling novel by Miriam Toews, All My Puny Sorrows is the poignant story of two sisters-one a concert pianist obsessed with ending her life, the other, a writer, who in wrestling with this decision, makes profound discoveries about her herself.



Video
ID           : 1
Format       : AVC
Format/Info      : Advanced Video Codec
Format profile       : [email protected]
Format settings      : CABAC / 4 Ref Frames
Format settings, CABAC       : Yes
Format settings, Reference frames    : 4 frames
Codec ID         : V_MPEG4/ISO/AVC
Duration         : 1 h 42 min
Bit rate         : 12.0 Mb/s
Width        : 1 920 pixels
Height       : 1 036 pixels
Display aspect ratio     : 1.85:1
Frame rate mode      : Constant
Frame rate       : 23.976 (24000/1001) FPS
Color space      : YUV
Chroma subsampling       : 4:2:0
Bit depth        : 8 bits
Scan type        : Progressive
Bits/(Pixel*Frame)       : 0.252
Stream size      : 8.62 GiB (86%)
Writing library      : x264 core 164 r3103 941cae6
Encoding settings        : cabac=1 / ref=4 / deblock=1:-3:-3 / analyse=0x3:0x133 / me=umh / subme=9 / psy=1 / psy_rd=1.00:0.00 / mixed_ref=1 / me_range=32 / chroma_me=1 / trellis=2 / 8x8dct=1 / cqm=0 / deadzone=21,11 / fast_pskip=0 / chroma_qp_offset=-2 / threads=32 / lookahead_threads=5 / sliced_threads=0 / nr=0 / decimate=0 / interlaced=0 / bluray_compat=0 / constrained_intra=0 / bframes=9 / b_pyramid=2 / b_adapt=2 / b_bias=0 / direct=3 / weightb=1 / open_gop=0 / weightp=2 / keyint=250 / keyint_min=23 / scenecut=40 / intra_refresh=0 / rc=crf / mbtree=0 / crf=16.5 / qcomp=0.60 / qpmin=0 / qpmax=69 / qpstep=4 / ip_ratio=1.40 / pb_ratio=1.30 / aq=3:0.88
Default          : Yes
Forced       : No
Color range      : Limited
Matrix coefficients      : BT.709

Audio
ID           : 2
Format       : DTS XLL
Format/Info      : Digital Theater Systems
Commercial name      : DTS-HD Master Audio
Codec ID         : A_DTS
Duration         : 1 h 42 min
Bit rate mode        : Variable
Bit rate         : 1 903 kb/s
Channel(s)       : 6 channels
Channel layout       : C L R Ls Rs LFE
Sampling rate        : 48.0 kHz
Frame rate       : 93.750 FPS (512 SPF)
Bit depth        : 16 bits
Compression mode     : Lossless
Stream size      : 1.37 GiB (14%)
Title        : English
Language         : English
Default          : No
Forced       : No

Text
ID           : 3
Format       : PGS
Muxing mode      : zlib
Codec ID         : S_HDMV/PGS
Codec ID/Info        : Picture based subtitle format used on BDs/HD-DVDs
Duration         : 1 h 39 min
Bit rate         : 26.6 kb/s
Count of elements        : 1748
Stream size      : 18.8 MiB (0%)
Title        : Dutch
Language         : Dutch
Default          : No
Forced       : No

Menu
00:00:00.000         : en:Chapter 01
00:14:05.636         : en:Chapter 02
00:25:28.569         : en:Chapter 03
00:39:08.179         : en:Chapter 04
00:53:50.310         : en:Chapter 05
01:01:48.914         : en:Chapter 06
01:14:14.450         : en:Chapter 07
01:25:59.321         : en:Chapter 08
01:39:27.420         : en:Chapter 09



Screenshots:
第二MP4_D2mp4_我所有微不足道的悲伤 All.My.Puny.Sorrows.2021.1080p.BluRay.x264-WoAT 10.00 GB
With
out
A
Trace

secretly brings you...

All.My.Puny.Sorrows.2021.1080p.BluRay.x264-WoAT

imdb..........: https://www.imdb.com/title/tt13588156/

date..........: 01/24/2023

video.........: 1920x1036 - 11997kb/s - crf 16.5
audio.........: English DTS-HD MA 1903kb/s

subtitles.....: Dutch (PGS)

duration......: 01:42:54;02

source........: 19998kb/s
size..........: 10.00GB
packed........: 72x150MB

notes:

磁力链接

magnet:?xt=urn:btih:291b4d3862f57da7485408a0915571910a67d7ae

上传的附件:
最新回复 (0)
返回
本站所有资源均收集自互联网,没有提供影片资源存储, 也未参与录制、上传,若本站收录的资源无意侵犯了您的权益, 请联系邮箱:nsfhetuafkey#gmail.com(#[email protected])