[2022] [欧美] [动作] [x264-1080P] 暴力之夜 Violent.Night.2022.1080p.BluRay.x264-PiGNUS 12.90 GB

d2mp4 4天前

第二MP4_D2mp4_暴力之夜 Violent.Night.2022.1080p.BluRay.x264-PiGNUS 12.90 GB

◎片  名 暴力之夜 Violent Night / 暴戾夜(台) / 杀神夜(港)
◎年  代 2022
◎产  地 美国
◎类  别 喜剧 / 动作 / 惊悚 / 犯罪
◎语  言 英语
◎上映日期 2022-12-02(美国)
◎IMDb评分  6.7/10 from 55675 users
◎IMDb链接  https://www.imdb.com/title/tt12003946/
◎豆瓣评分 6.1/10 from 6738 users
◎豆瓣链接 https://movie.douban.com/subject/35899025/
◎片  长 101分钟
◎导  演 托米·维尔科拉 Tommy Wirkola
◎编  剧 帕特里克·凯西 Patrick Casey
       乔什·米勒 Josh Miller
       Josh Miller Josh Miller
       Pat Casey Pat Casey
◎主  演 大卫·哈伯 David Harbour
       约翰·雷吉扎莫 John Leguizamo
       比佛莉·德安姬罗 Beverly D'Angelo
       凯姆·吉甘戴 Cam Gigandet
       布兰登·弗莱彻 Brendan Fletcher
       艾迪·帕特森 Edi Patterson
       阿历克斯·哈赛尔 Alex Hassell
       亚历克西斯·拉奥特 Alexis Louder
       麦克·多普德 Mike Dopud
       亚历山大·埃利奥特 Alexander Elliot
       斯蒂芬妮·西 Stephanie Sy
       安德烈·埃里克森 André Eriksen
       蜜特拉·苏里 Mitra Suri
       肖恩·斯基恩 Sean Skene
       埃里克·阿塔瓦尔 Erik Athavale

◎简  介

  一支佣兵团队在圣诞夜突袭一栋富有人家的豪宅,并且挟持豪宅内的所有人为人质时,他们竟然遇到一个完全意想不到的强劲对手:圣诞老人(大卫·哈伯 饰),而且他会让他们知道圣诞老人并不是一个面容慈祥、心地善良的圣人。



Video
ID           : 1
Format       : AVC
Format/Info      : Advanced Video Codec
Format profile       : [email protected]
Format settings      : CABAC / 5 Ref Frames
Format settings, CABAC       : Yes
Format settings, Reference frames    : 5 frames
Codec ID         : V_MPEG4/ISO/AVC
Duration         : 1 h 51 min
Bit rate         : 11.8 Mb/s
Width        : 1 920 pixels
Height       : 804 pixels
Display aspect ratio     : 2.40:1
Frame rate mode      : Constant
Frame rate       : 23.976 (24000/1001) FPS
Color space      : YUV
Chroma subsampling       : 4:2:0
Bit depth        : 8 bits
Scan type        : Progressive
Bits/(Pixel*Frame)       : 0.320
Stream size      : 9.23 GiB (72%)
Writing library      : x264 core 164 r3103 941cae6
Encoding settings        : cabac=1 / ref=5 / deblock=1:-3:-3 / analyse=0x3:0x133 / me=umh / subme=9 / psy=1 / psy_rd=1.00:0.00 / mixed_ref=1 / me_range=16 / chroma_me=1 / trellis=2 / 8x8dct=1 / cqm=0 / deadzone=21,11 / fast_pskip=1 / chroma_qp_offset=-2 / threads=25 / lookahead_threads=2 / sliced_threads=0 / nr=0 / decimate=1 / interlaced=0 / bluray_compat=0 / constrained_intra=0 / bframes=3 / b_pyramid=2 / b_adapt=2 / b_bias=0 / direct=3 / weightb=1 / open_gop=0 / weightp=2 / keyint=250 / keyint_min=23 / scenecut=40 / intra_refresh=0 / rc_lookahead=60 / rc=crf / mbtree=1 / crf=15.5 / qcomp=0.60 / qpmin=0 / qpmax=69 / qpstep=4 / ip_ratio=1.40 / aq=1:1.00
Default          : Yes
Forced       : No

Audio #1
ID           : 2
Format       : DTS XLL
Format/Info      : Digital Theater Systems
Commercial name      : DTS-HD Master Audio
Codec ID         : A_DTS
Duration         : 1 h 51 min
Bit rate mode        : Variable
Bit rate         : 4 579 kb/s
Channel(s)       : 8 channels
Channel layout       : C L R LFE Lb Rb Lss Rss
Sampling rate        : 48.0 kHz
Frame rate       : 93.750 FPS (512 SPF)
Bit depth        : 24 bits
Compression mode     : Lossless
Stream size      : 3.57 GiB (28%)
Language         : English
Default          : Yes
Forced       : No

Audio #2
ID           : 3
Format       : AAC LC
Format/Info      : Advanced Audio Codec Low Complexity
Codec ID         : A_AAC-2
Duration         : 1 h 51 min
Bit rate         : 98.9 kb/s
Channel(s)       : 2 channels
Channel layout       : L R
Sampling rate        : 48.0 kHz
Frame rate       : 46.875 FPS (1024 SPF)
Compression mode     : Lossy
Delay relative to video      : 9 ms
Stream size      : 78.9 MiB (1%)
Title        : Commentary
Language         : English
Default          : No
Forced       : No

Text #1
ID           : 4
Format       : PGS
Muxing mode      : zlib
Codec ID         : S_HDMV/PGS
Codec ID/Info        : Picture based subtitle format used on BDs/HD-DVDs
Duration         : 1 h 47 min
Bit rate         : 38.6 kb/s
Count of elements        : 3358
Stream size      : 29.6 MiB (0%)
Title        : English SDH
Language         : English
Default          : No
Forced       : No

Text #2
ID           : 5
Format       : PGS
Muxing mode      : zlib
Codec ID         : S_HDMV/PGS
Codec ID/Info        : Picture based subtitle format used on BDs/HD-DVDs
Duration         : 1 h 50 min
Bit rate         : 29.6 kb/s
Count of elements        : 2645
Stream size      : 23.5 MiB (0%)
Title        : Spanish
Language         : Spanish
Default          : No
Forced       : No

Text #3
ID           : 6
Format       : PGS
Muxing mode      : zlib
Codec ID         : S_HDMV/PGS
Codec ID/Info        : Picture based subtitle format used on BDs/HD-DVDs
Duration         : 1 h 50 min
Bit rate         : 31.0 kb/s
Count of elements        : 2914
Stream size      : 24.5 MiB (0%)
Title        : French
Language         : French
Default          : No
Forced       : No

Text #4
ID           : 7
Format       : PGS
Muxing mode      : zlib
Codec ID         : S_HDMV/PGS
Codec ID/Info        : Picture based subtitle format used on BDs/HD-DVDs
Duration         : 1 h 38 min
Bit rate         : 58 b/s
Count of elements        : 6
Stream size      : 41.8 KiB (0%)
Title        : Spanish
Language         : Spanish
Default          : No
Forced       : No

Text #5
ID           : 8
Format       : PGS
Muxing mode      : zlib
Codec ID         : S_HDMV/PGS
Codec ID/Info        : Picture based subtitle format used on BDs/HD-DVDs
Duration         : 1 h 50 min
Bit rate         : 254 b/s
Count of elements        : 24
Stream size      : 206 KiB (0%)
Title        : French
Language         : French
Default          : No
Forced       : No

Menu
00:00:00.000         : en:Chapter 01
00:04:52.167         : en:Chapter 02
00:07:55.517         : en:Chapter 03
00:13:14.377         : en:Chapter 04
00:17:55.950         : en:Chapter 05
00:21:23.782         : en:Chapter 06
00:29:55.961         : en:Chapter 07
00:33:29.090         : en:Chapter 08
00:38:41.736         : en:Chapter 09
00:44:14.068         : en:Chapter 10
00:52:57.800         : en:Chapter 11
00:58:51.945         : en:Chapter 12
01:09:29.165         : en:Chapter 13
01:15:18.055         : en:Chapter 14
01:20:00.713         : en:Chapter 15
01:24:39.449         : en:Chapter 16
01:28:12.454         : en:Chapter 17
01:32:51.775         : en:Chapter 18
01:37:49.405         : en:Chapter 19
01:45:31.992         : en:Chapter 20
01:51:31.643         : en:Chapter 21



Screenshots:
第二MP4_D2mp4_暴力之夜 Violent.Night.2022.1080p.BluRay.x264-PiGNUS 12.90 GB
Name: Violent.Night.2022.1080p.BluRay.x264-PiGNUS

Release date: 24-01-2023

IMDB link: https://www.imdb.com/title/tt12003946

Resolution: 1920x804
Audio: English DTS-HD Master 8ch 4580 kbps
: English AAC 2ch Commentary
Video: 11847 kbps, CRF 15.5
Source: 29827 kbps

Subtitles: English SDH, Spanish, French

磁力链接

magnet:?xt=urn:btih:99b648bc56231d30f637f1ca5603e5cb8a7cac15

上传的附件:
最新回复 (0)
返回
本站所有资源均收集自互联网,没有提供影片资源存储, 也未参与录制、上传,若本站收录的资源无意侵犯了您的权益, 请联系邮箱:nsfhetuafkey#gmail.com(#[email protected])