[2019] [欧美] [战争] [x265-1080P] 寒冷的1918 Kruty.1918.2019.UKRAINIAN.1080p.WEBRip.x265-VXT 1.72 GB

d2mp4 4天前

第二MP4_D2mp4_寒冷的1918 Kruty.1918.2019.UKRAINIAN.1080p.WEBRip.x265-VXT 1.72 GB

◎片  名 寒冷的1918 Крути 1918 / Круты. 1918 / Kruty 1918 / 1918: The Battle of Kruty
◎年  代 2019
◎产  地 乌克兰
◎类  别 历史 / 战争
◎语  言 乌克兰语
◎上映日期 2019-02-07(乌克兰)
◎IMDb评分  6.0/10 from 909 users
◎IMDb链接  https://www.imdb.com/title/tt8009354/
◎豆瓣评分 6.0/10 from 118 users
◎豆瓣链接 https://movie.douban.com/subject/30399837/
◎片  长 110分钟
◎导  演 阿列克西·沙帕雷夫 Aleksey Shaparev
◎编  剧 康斯坦丁·科诺瓦洛夫 Konstantin Konovalov
◎主  演 安德烈·费迪奇克 Andrey Fedinchik
       埃文尼亚·拉玛赫 Evhenii Lamakh
       弗拉德·尼基尤克 Vlad Nikityuk
       奥斯塔普·斯图普卡 Ostap Stupka
       罗曼·亚西诺夫斯基 Roman Yasinovsky
       娜塔莉娅·瓦斯科 Nataliya Vasko
       维塔利·萨利 Vitaliy Saliy
       亚历克西·特里滕科 Aleksey Tritenko
       德米特罗·塔普卡 Dmytro Stupka
       耶文·尼什丘克 Yevhen Nyshchuk
       阿琳娜·科瓦连科 Alina Kovalenko

◎简  介

  讲述1918年冬,400名新入伍的乌克兰士官生必须坚守基辅,阻挡苏联红军的大规模入侵



Video
ID           : 1
Format       : HEVC
Format/Info      : High Efficiency Video Coding
Format profile       : Main [email protected]@Main
Codec ID         : hev1
Codec ID/Info        : High Efficiency Video Coding
Duration         : 1 h 50 min
Bit rate         : 2 005 kb/s
Width        : 1 920 pixels
Height       : 800 pixels
Display aspect ratio     : 2.40:1
Frame rate mode      : Constant
Frame rate       : 24.000 FPS
Color space      : YUV
Chroma subsampling       : 4:2:0
Bit depth        : 10 bits
Bits/(Pixel*Frame)       : 0.054
Stream size      : 1.54 GiB (90%)
Writing library      : x265 3.3+4-rarbg-30eb4de83092:[Linux][GCC 8.3.1][64 bit] 10bit
Encoding settings        : cpuid=1111039 / frame-threads=4 / wpp / no-pmode / no-pme / no-psnr / no-ssim / log-level=2 / input-csp=1 / input-res=1920x800 / interlace=0 / total-frames=0 / level-idc=0 / high-tier=1 / uhd-bd=0 / ref=4 / no-allow-non-conformance / no-repeat-headers / annexb / no-aud / no-hrd / info / hash=0 / no-temporal-layers / open-gop / min-keyint=24 / keyint=250 / gop-lookahead=0 / bframes=4 / b-adapt=2 / b-pyramid / bframe-bias=0 / rc-lookahead=25 / lookahead-slices=4 / scenecut=40 / hist-scenecut=0 / radl=0 / no-splice / no-intra-refresh / ctu=64 / min-cu-size=8 / rect / no-amp / max-tu-size=32 / tu-inter-depth=1 / tu-intra-depth=1 / limit-tu=0 / rdoq-level=2 / dynamic-rd=0.00 / no-ssim-rd / signhide / no-tskip / nr-intra=0 / nr-inter=0 / no-constrained-intra / strong-intra-smoothing / max-merge=3 / limit-refs=3 / limit-modes / me=3 / subme=3 / merange=57 / temporal-mvp / no-frame-dup / no-hme / weightp / no-weightb / no-analyze-src-pics / deblock=0:0 / no-sao / no-sao-non-deblock / rd=4 / selective-sao=0 / no-early-skip / rskip / no-fast-intra / no-tskip-fast / no-cu-lossless / no-b-intra / no-splitrd-skip / rdpenalty=0 / psy-rd=2.00 / psy-rdoq=1.00 / no-rd-refine / no-lossless / cbqpoffs=0 / crqpoffs=0 / rc=abr / bitrate=2000 / qcomp=0.60 / qpstep=4 / stats-write=0 / stats-read=2 / cplxblur=20.0 / qblur=0.5 / ipratio=1.40 / pbratio=1.30 / aq-mode=3 / aq-strength=1.00 / cutree / zone-count=0 / no-strict-cbr / qg-size=32 / no-rc-grain / qpmax=69 / qpmin=0 / no-const-vbv / sar=1 / overscan=0 / videoformat=5 / range=0 / colorprim=2 / transfer=2 / colormatrix=2 / chromaloc=0 / display-window=0 / cll=0,0 / min-luma=0 / max-luma=1023 / log2-max-poc-lsb=8 / vui-timing-info / vui-hrd-info / slices=1 / no-opt-qp-pps / no-opt-ref-list-length-pps / no-multi-pass-opt-rps / scenecut-bias=0.05 / hist-threshold=0.01 / no-opt-cu-delta-qp / no-aq-motion / no-hdr10 / no-hdr10-opt / no-dhdr10-opt / no-idr-recovery-sei / analysis-reuse-level=0 / analysis-save-reuse-level=0 / analysis-load-reuse-level=0 / scale-factor=0 / refine-intra=0 / refine-inter=0 / refine-mv=1 / refine-ctu-distortion=0 / no-limit-sao / ctu-info=0 / no-lowpass-dct / refine-analysis-type=0 / copy-pic=1 / max-ausize-factor=1.0 / no-dynamic-refine / no-single-sei / no-hevc-aq / no-svt / no-field / qp-adaptation-range=1.00 / no-scenecut-aware-qpconformance-window-offsets / right=0 / bottom=0
Encoded date         : UTC 2023-01-24 20:18:35
Tagged date      : UTC 2023-01-24 20:18:35
Codec configuration box      : hvcC

Audio
ID           : 2
Format       : AAC LC
Format/Info      : Advanced Audio Codec Low Complexity
Codec ID         : mp4a-40-2
Duration         : 1 h 50 min
Bit rate mode        : Constant
Bit rate         : 224 kb/s
Channel(s)       : 6 channels
Channel layout       : C L R Ls Rs LFE
Sampling rate        : 48.0 kHz
Frame rate       : 46.875 FPS (1024 SPF)
Compression mode     : Lossy
Stream size      : 177 MiB (10%)
Language         : Ukrainian
Default          : Yes
Alternate group      : 1
Encoded date         : UTC 2023-01-24 20:18:35
Tagged date      : UTC 2023-01-24 20:18:35



第二MP4_D2mp4_寒冷的1918 Kruty.1918.2019.UKRAINIAN.1080p.WEBRip.x265-VXT 1.72 GB
第二MP4_D2mp4_寒冷的1918 Kruty.1918.2019.UKRAINIAN.1080p.WEBRip.x265-VXT 1.72 GB
第二MP4_D2mp4_寒冷的1918 Kruty.1918.2019.UKRAINIAN.1080p.WEBRip.x265-VXT 1.72 GB

磁力链接

magnet:?xt=urn:btih:3237c572314c8c1c8d45bd1c661189ff598091c2

上传的附件:
最新回复 (0)
返回
本站所有资源均收集自互联网,没有提供影片资源存储, 也未参与录制、上传,若本站收录的资源无意侵犯了您的权益, 请联系邮箱:nsfhetuafkey#gmail.com(#[email protected])