[2022] [欧美] [惊悚] [x265-4K] 梅根 M3GAN.2023.2160p.MA.WEB-DL.x265.10bit.SDR.DDP5.1.Atmos-CM 17.87 GB

d2mp4 4天前

第二MP4_D2mp4_梅根 M3GAN.2023.2160p.MA.WEB-DL.x265.10bit.SDR.DDP5.1.Atmos-CM 17.87 GB

◎片  名 梅根 M3GAN / 室友梅根(台) / 人工杀姬(港) / 窒友梅根 / 玩偶梅根 / M3gan
◎年  代 2022
◎产  地 美国
◎类  别 科幻 / 惊悚 / 恐怖
◎语  言 英语
◎上映日期 2022-12-28(法国) / 2023-01-06(美国)
◎IMDb评分  6.6/10 from 27066 users
◎IMDb链接  https://www.imdb.com/title/tt8760708/
◎豆瓣评分 6.2/10 from 4541 users
◎豆瓣链接 https://movie.douban.com/subject/30277290/
◎片  长 102分钟
◎导  演 热拉尔·约翰斯通 Gerard Johnstone
◎编  剧 阿克拉·库珀 Akela Cooper
      温子仁 James Wan
◎主  演 艾莉森·威廉姆斯 Allison Williams
      维奥莱特·麦格劳 Violet McGraw
      钱信伊 Ronny Chieng
      珍娜·戴维斯 Jenna Davis
      布莱恩·乔丹·阿尔瓦雷斯 Brian Jordan Alvarez
      珍·凡·伊普斯 Jen Van Epps
      洛丽·邓盖 Lori Dungey
      斯蒂芬·加诺·蒙顿 Stephane Garneau-Monten
      阿洛·格林 Arlo Green
      艾米·唐纳德 Amie Donald
      迈克尔·萨克特 Michael Saccente

◎简  介

  “她不只是个玩具,而是这个家的一份子。”
 梅根(M3GAN)是一个具备高度人工智能、栩栩如生的玩具人偶,被设计成小孩子最好的玩伴和令家长最安心的盟友。这款玩具人偶由一名玩具公司杰出的机器人专家洁玛(艾莉森·威廉姆斯 饰)精心设计,梅根能够借由聆听以及观察学习人类行为,并且成为她照顾的小孩的朋友、老师、玩伴和保护者。
 当洁玛突然成为她失去双亲的八岁侄女凯蒂(维奥莱特·麦格劳 饰)的监护人之后,洁玛并不确定也没有准备好能够成为一个好的家长,加上她的工作压力非常巨大,于是就决定将她设计的人工智能玩具人偶梅根和凯蒂配对,试图解决照顾凯蒂这个孤儿和纾解她工作压力这两个问题,但是她的这个决定却造成无法想像的严重后果。



Video
ID        : 1
Format       : HEVC
Format/Info      : High Efficiency Video Coding
Format profile      : Main [email protected]@High
Codec ID       : V_MPEGH/ISO/HEVC
Duration       : 1 h 41 min
Bit rate       : 24.3 Mb/s
Width        : 3 840 pixels
Height       : 2 160 pixels
Display aspect ratio     : 16:9
Frame rate mode      : Constant
Frame rate       : 23.976 (24000/1001) FPS
Color space      : YUV
Chroma subsampling     : 4:2:0 (Type 2)
Bit depth       : 10 bits
Bits/(Pixel*Frame)     : 0.122
Stream size      : 17.3 GiB (97%)
Language       : English
Default       : Yes
Forced       : No
Color range      : Limited
Color primaries      : BT.709
Transfer characteristics    : BT.709
Matrix coefficients     : BT.709

Audio
ID        : 2
Format       : E-AC-3 JOC
Format/Info      : Enhanced AC-3 with Joint Object Coding
Commercial name      : Dolby Digital Plus with Dolby Atmos
Codec ID       : A_EAC3
Duration       : 1 h 41 min
Bit rate mode      : Constant
Bit rate       : 768 kb/s
Channel(s)       : 6 channels
Channel layout      : L R C LFE Ls Rs
Sampling rate      : 48.0 kHz
Frame rate       : 31.250 FPS (1536 SPF)
Compression mode     : Lossy
Stream size      : 560 MiB (3%)
Language       : English
Service kind      : Complete Main
Default       : Yes
Forced       : No
Complexity index     : 16
Number of dynamic objects    : 15
Bed channel count     : 1 channel
Bed channel configuration    : LFE

Text #1
ID        : 3
Format       : UTF-8
Codec ID       : S_TEXT/UTF8
Codec ID/Info      : UTF-8 Plain Text
Duration       : 1 h 41 min
Bit rate       : 76 b/s
Frame rate       : 0.306 FPS
Count of elements     : 1870
Stream size      : 57.4 KiB (0%)
Title        : SDH
Language       : English
Default       : No
Forced       : No

Text #2
ID        : 4
Format       : UTF-8
Codec ID       : S_TEXT/UTF8
Codec ID/Info      : UTF-8 Plain Text
Duration       : 1 h 41 min
Bit rate       : 69 b/s
Frame rate       : 0.271 FPS
Count of elements     : 1648
Stream size      : 51.4 KiB (0%)
Language       : English
Default       : No
Forced       : No


第二MP4_D2mp4_梅根 M3GAN.2023.2160p.MA.WEB-DL.x265.10bit.SDR.DDP5.1.Atmos-CM 17.87 GB
第二MP4_D2mp4_梅根 M3GAN.2023.2160p.MA.WEB-DL.x265.10bit.SDR.DDP5.1.Atmos-CM 17.87 GB
第二MP4_D2mp4_梅根 M3GAN.2023.2160p.MA.WEB-DL.x265.10bit.SDR.DDP5.1.Atmos-CM 17.87 GB

磁力链接

magnet:?xt=urn:btih:30875972482c6c83709fde426483b84fb4b9485f
上传的附件:
最新回复 (0)
返回
本站所有资源均收集自互联网,没有提供影片资源存储, 也未参与录制、上传,若本站收录的资源无意侵犯了您的权益, 请联系邮箱:nsfhetuafkey#gmail.com(#[email protected])