[2022] [欧美] [动作] [BD-Remux] 暴力之夜 Violent.Night.2022.1080p.BluRay.REMUX.AVC.DTS-HD.MA.7.1-FGT 29.09 GB

d2mp4 4天前

第二MP4_D2mp4_暴力之夜 Violent.Night.2022.1080p.BluRay.REMUX.AVC.DTS-HD.MA.7.1-FGT 29.09 GB

◎片  名 暴力之夜 Violent Night / 暴戾夜(台) / 杀神夜(港)
◎年  代 2022
◎产  地 美国
◎类  别 喜剧 / 动作 / 惊悚 / 犯罪
◎语  言 英语
◎上映日期 2022-12-02(美国)
◎IMDb评分  6.7/10 from 55810 users
◎IMDb链接  https://www.imdb.com/title/tt12003946/
◎豆瓣评分 6.1/10 from 6756 users
◎豆瓣链接 https://movie.douban.com/subject/35899025/
◎片  长 101分钟
◎导  演 托米·维尔科拉 Tommy Wirkola
◎编  剧 帕特里克·凯西 Patrick Casey
       乔什·米勒 Josh Miller
       Josh Miller Josh Miller
       Pat Casey Pat Casey
◎主  演 大卫·哈伯 David Harbour
       约翰·雷吉扎莫 John Leguizamo
       比佛莉·德安姬罗 Beverly D'Angelo
       凯姆·吉甘戴 Cam Gigandet
       布兰登·弗莱彻 Brendan Fletcher
       艾迪·帕特森 Edi Patterson
       阿历克斯·哈赛尔 Alex Hassell
       亚历克西斯·拉奥特 Alexis Louder
       麦克·多普德 Mike Dopud
       亚历山大·埃利奥特 Alexander Elliot
       斯蒂芬妮·西 Stephanie Sy
       安德烈·埃里克森 André Eriksen
       蜜特拉·苏里 Mitra Suri
       肖恩·斯基恩 Sean Skene
       埃里克·阿塔瓦尔 Erik Athavale

◎简  介

  一支佣兵团队在圣诞夜突袭一栋富有人家的豪宅,并且挟持豪宅内的所有人为人质时,他们竟然遇到一个完全意想不到的强劲对手:圣诞老人(大卫·哈伯 饰),而且他会让他们知道圣诞老人并不是一个面容慈祥、心地善良的圣人。



Video
ID           : 1
ID in the original source medium     : 4113 (0x1011)
Format       : AVC
Format/Info      : Advanced Video Codec
Format profile       : [email protected]
Format settings      : CABAC / 4 Ref Frames
Format settings, CABAC       : Yes
Format settings, Reference frames    : 4 frames
Codec ID         : V_MPEG4/ISO/AVC
Duration         : 1 h 51 min
Bit rate mode        : Variable
Bit rate         : 29.5 Mb/s
Maximum bit rate     : 32.0 Mb/s
Width        : 1 920 pixels
Height       : 1 080 pixels
Display aspect ratio     : 16:9
Frame rate mode      : Constant
Frame rate       : 23.976 (24000/1001) FPS
Color space      : YUV
Chroma subsampling       : 4:2:0
Bit depth        : 8 bits
Scan type        : Progressive
Bits/(Pixel*Frame)       : 0.594
Stream size      : 23.0 GiB (79%)
Language         : English
Default          : No
Forced       : No
Original source medium       : Blu-ray

Audio #1
ID           : 2
ID in the original source medium     : 4352 (0x1100)
Format       : DTS XLL
Format/Info      : Digital Theater Systems
Commercial name      : DTS-HD Master Audio
Codec ID         : A_DTS
Duration         : 1 h 51 min
Bit rate mode        : Variable
Bit rate         : 4 579 kb/s
Channel(s)       : 8 channels
Channel layout       : C L R LFE Lb Rb Lss Rss
Sampling rate        : 48.0 kHz
Frame rate       : 93.750 FPS (512 SPF)
Bit depth        : 24 bits
Compression mode     : Lossless
Stream size      : 3.57 GiB (12%)
Title        : DTS-HD MA 7.1
Language         : English
Default          : Yes
Forced       : No
Original source medium       : Blu-ray

Audio #2
ID           : 3
ID in the original source medium     : 4353 (0x1101)
Format       : DTS XBR
Format/Info      : Digital Theater Systems
Commercial name      : DTS-HD High Resolution Audio
Codec ID         : A_DTS
Duration         : 1 h 51 min
Bit rate mode        : Constant
Bit rate         : 2 046 kb/s
Channel(s)       : 8 channels
Channel layout       : C L R LFE Lb Rb Lss Rss
Sampling rate        : 48.0 kHz
Frame rate       : 93.750 FPS (512 SPF)
Bit depth        : 24 bits
Compression mode     : Lossy
Stream size      : 1.59 GiB (5%)
Title        : DTS-HR 7.1
Language         : Spanish
Default          : No
Forced       : No
Original source medium       : Blu-ray

Audio #3
ID           : 4
ID in the original source medium     : 4354 (0x1102)
Format       : DTS
Format/Info      : Digital Theater Systems
Codec ID         : A_DTS
Duration         : 1 h 51 min
Bit rate mode        : Constant
Bit rate         : 768 kb/s
Channel(s)       : 6 channels
Channel layout       : C L R Ls Rs LFE
Sampling rate        : 48.0 kHz
Frame rate       : 93.750 FPS (512 SPF)
Bit depth        : 24 bits
Compression mode     : Lossy
Stream size      : 613 MiB (2%)
Title        : DTS 5.1
Language         : French
Default          : No
Forced       : No
Original source medium       : Blu-ray

Audio #4
ID           : 5
ID in the original source medium     : 4355 (0x1103)
Format       : AC-3
Format/Info      : Audio Coding 3
Commercial name      : Dolby Digital
Codec ID         : A_AC3
Duration         : 1 h 51 min
Bit rate mode        : Constant
Bit rate         : 192 kb/s
Channel(s)       : 2 channels
Channel layout       : L R
Sampling rate        : 48.0 kHz
Frame rate       : 31.250 FPS (1536 SPF)
Compression mode     : Lossy
Stream size      : 153 MiB (0%)
Title        : DD 2.0
Language         : English
Service kind         : Complete Main
Default          : No
Forced       : No
Original source medium       : Blu-ray

Audio #5
ID           : 6
ID in the original source medium     : 4356 (0x1104)
Format       : AC-3
Format/Info      : Audio Coding 3
Commercial name      : Dolby Digital
Format settings      : Dolby Surround
Codec ID         : A_AC3
Duration         : 1 h 51 min
Bit rate mode        : Constant
Bit rate         : 192 kb/s
Channel(s)       : 2 channels
Channel layout       : L R
Sampling rate        : 48.0 kHz
Frame rate       : 31.250 FPS (1536 SPF)
Compression mode     : Lossy
Stream size      : 153 MiB (0%)
Title        : DD 2.0
Language         : English
Service kind         : Complete Main
Default          : No
Forced       : No
Original source medium       : Blu-ray

Text #1
ID           : 7
Format       : UTF-8
Codec ID         : S_TEXT/UTF8
Codec ID/Info        : UTF-8 Plain Text
Duration         : 1 h 46 min
Bit rate         : 51 b/s
Frame rate       : 0.229 FPS
Count of elements        : 1455
Stream size      : 40.0 KiB (0%)
Language         : English
Default          : Yes
Forced       : No

Text #2
ID           : 8
Format       : UTF-8
Codec ID         : S_TEXT/UTF8
Codec ID/Info        : UTF-8 Plain Text
Duration         : 1 h 47 min
Bit rate         : 54 b/s
Frame rate       : 0.257 FPS
Count of elements        : 1655
Stream size      : 43.2 KiB (0%)
Title        : SDH
Language         : English
Default          : No
Forced       : No

Text #3
ID           : 9
ID in the original source medium     : 4608 (0x1200)
Format       : PGS
Muxing mode      : zlib
Codec ID         : S_HDMV/PGS
Codec ID/Info        : Picture based subtitle format used on BDs/HD-DVDs
Duration         : 1 h 47 min
Bit rate         : 38.6 kb/s
Frame rate       : 0.521 FPS
Count of elements        : 3358
Stream size      : 29.6 MiB (0%)
Language         : English
Default          : No
Forced       : No
Original source medium       : Blu-ray

Text #4
ID           : 10
ID in the original source medium     : 4609 (0x1201)
Format       : PGS
Muxing mode      : zlib
Codec ID         : S_HDMV/PGS
Codec ID/Info        : Picture based subtitle format used on BDs/HD-DVDs
Duration         : 1 h 50 min
Bit rate         : 29.6 kb/s
Frame rate       : 0.398 FPS
Count of elements        : 2645
Stream size      : 23.5 MiB (0%)
Language         : Spanish
Default          : No
Forced       : No
Original source medium       : Blu-ray

Text #5
ID           : 11
ID in the original source medium     : 4610 (0x1202)
Format       : PGS
Muxing mode      : zlib
Codec ID         : S_HDMV/PGS
Codec ID/Info        : Picture based subtitle format used on BDs/HD-DVDs
Duration         : 1 h 50 min
Bit rate         : 31.0 kb/s
Frame rate       : 0.439 FPS
Count of elements        : 2914
Stream size      : 24.5 MiB (0%)
Language         : French
Default          : No
Forced       : No
Original source medium       : Blu-ray

Text #6
ID           : 12
ID in the original source medium     : 4611 (0x1203)
Format       : PGS
Muxing mode      : zlib
Codec ID         : S_HDMV/PGS
Codec ID/Info        : Picture based subtitle format used on BDs/HD-DVDs
Duration         : 1 h 38 min
Bit rate         : 58 b/s
Frame rate       : 0.001 FPS
Count of elements        : 6
Stream size      : 41.8 KiB (0%)
Language         : Spanish
Default          : No
Forced       : No
Original source medium       : Blu-ray

Text #7
ID           : 13
ID in the original source medium     : 4612 (0x1204)
Format       : PGS
Muxing mode      : zlib
Codec ID         : S_HDMV/PGS
Codec ID/Info        : Picture based subtitle format used on BDs/HD-DVDs
Duration         : 1 h 50 min
Bit rate         : 254 b/s
Frame rate       : 0.004 FPS
Count of elements        : 24
Stream size      : 206 KiB (0%)
Language         : French
Default          : No
Forced       : No
Original source medium       : Blu-ray

Menu
00:00:00.000         : en:Chapter 01
00:04:52.166         : en:Chapter 02
00:07:55.391         : en:Chapter 03
00:13:14.376         : en:Chapter 04
00:17:55.949         : en:Chapter 05
00:21:23.782         : en:Chapter 06
00:29:55.960         : en:Chapter 07
00:33:29.090         : en:Chapter 08
00:38:41.736         : en:Chapter 09
00:44:14.068         : en:Chapter 10
00:52:57.799         : en:Chapter 11
00:58:51.945         : en:Chapter 12
01:09:29.165         : en:Chapter 13
01:15:18.055         : en:Chapter 14
01:20:00.712         : en:Chapter 15
01:24:39.449         : en:Chapter 16
01:28:12.453         : en:Chapter 17
01:32:51.774         : en:Chapter 18
01:37:49.405         : en:Chapter 19
01:45:31.992         : en:Chapter 20



第二MP4_D2mp4_暴力之夜 Violent.Night.2022.1080p.BluRay.REMUX.AVC.DTS-HD.MA.7.1-FGT 29.09 GB
第二MP4_D2mp4_暴力之夜 Violent.Night.2022.1080p.BluRay.REMUX.AVC.DTS-HD.MA.7.1-FGT 29.09 GB
第二MP4_D2mp4_暴力之夜 Violent.Night.2022.1080p.BluRay.REMUX.AVC.DTS-HD.MA.7.1-FGT 29.09 GB

磁力链接

magnet:?xt=urn:btih:3b45659ed1b6740ddb36834356db35fcd7f3fbdd

上传的附件:
最新回复 (1)
返回
本站所有资源均收集自互联网,没有提供影片资源存储, 也未参与录制、上传,若本站收录的资源无意侵犯了您的权益, 请联系邮箱:nsfhetuafkey#gmail.com(#[email protected])