[2021] [欧美] [惊悚] [x264-1080P] Designed for Death Designed.For.Death.2021.1080p.AMZN.WEBRip.DDP2.0.x264-KHEZU 5.72 GB

d2mp4 4天前

第二MP4_D2mp4_Designed for Death Designed.For.Death.2021.1080p.AMZN.WEBRip.DDP2.0.x264-KHEZU 5.72 GB

◎片  名 Designed for Death
◎年  代 2021
◎产  地 美国 / 加拿大
◎类  别 惊悚
◎语  言 英语
◎上映日期 2021-08-13(美国)
◎IMDb评分  5.6/10 from 85 users
◎IMDb链接  https://www.imdb.com/title/tt15348026/
◎豆瓣评分 /10 from 0 users
◎豆瓣链接 https://movie.douban.com/subject/36214093/
◎片  长 1小时23分08秒
◎导  演 
◎编  剧 
◎主  演 Kelcie Stranahan Kelcie Stranahan
       马修·波尔坎普 Matthew Pohlkamp
       保利娜·伊根 Pauline Egan

◎简  介

  After re-vamping a home, beautiful interior decorator Ava becomes madly obsessed with the handsome owner. She sets out to eliminate his family and live in the house she created with the man she loves.



Video
ID           : 1
Format       : AVC
Format/Info      : Advanced Video Codec
Format profile       : [email protected]
Format settings      : CABAC / 4 Ref Frames
Format settings, CABAC       : Yes
Format settings, Reference frames    : 4 frames
Codec ID         : V_MPEG4/ISO/AVC
Duration         : 1 h 27 min
Bit rate mode        : Constant
Bit rate         : 9 104 kb/s
Nominal bit rate     : 10 000 kb/s
Width        : 1 920 pixels
Height       : 1 080 pixels
Display aspect ratio     : 16:9
Frame rate mode      : Constant
Frame rate       : 23.976 (24000/1001) FPS
Color space      : YUV
Chroma subsampling       : 4:2:0
Bit depth        : 8 bits
Scan type        : Progressive
Bits/(Pixel*Frame)       : 0.183
Stream size      : 5.58 GiB (98%)
Language         : English (US)
Default          : Yes
Forced       : No
Color range      : Limited
Color primaries      : BT.709
Transfer characteristics     : BT.709
Matrix coefficients      : BT.709

Audio
ID           : 2
Format       : E-AC-3
Format/Info      : Enhanced AC-3
Commercial name      : Dolby Digital Plus
Codec ID         : A_EAC3
Duration         : 1 h 27 min
Bit rate mode        : Constant
Bit rate         : 224 kb/s
Channel(s)       : 2 channels
Channel layout       : L R
Sampling rate        : 48.0 kHz
Frame rate       : 31.250 FPS (1536 SPF)
Compression mode     : Lossy
Stream size      : 141 MiB (2%)
Language         : English
Service kind         : Complete Main
Default          : Yes
Forced       : No

Text #1
ID           : 3
Format       : UTF-8
Codec ID         : S_TEXT/UTF8
Codec ID/Info        : UTF-8 Plain Text
Duration         : 1 h 25 min
Bit rate         : 73 b/s
Frame rate       : 0.293 FPS
Count of elements        : 1506
Stream size      : 46.0 KiB (0%)
Language         : English (US)
Default          : Yes
Forced       : No

Text #2
ID           : 4
Format       : UTF-8
Codec ID         : S_TEXT/UTF8
Codec ID/Info        : UTF-8 Plain Text
Duration         : 1 h 26 min
Bit rate         : 84 b/s
Frame rate       : 0.353 FPS
Count of elements        : 1836
Stream size      : 53.7 KiB (0%)
Title        : SDH
Language         : English (US)
Default          : No
Forced       : No



第二MP4_D2mp4_Designed for Death Designed.For.Death.2021.1080p.AMZN.WEBRip.DDP2.0.x264-KHEZU 5.72 GB
第二MP4_D2mp4_Designed for Death Designed.For.Death.2021.1080p.AMZN.WEBRip.DDP2.0.x264-KHEZU 5.72 GB
第二MP4_D2mp4_Designed for Death Designed.For.Death.2021.1080p.AMZN.WEBRip.DDP2.0.x264-KHEZU 5.72 GB

磁力链接

magnet:?xt=urn:btih:bb475fd55095040abc661554ed94c893edcad2da

上传的附件:
最新回复 (0)
返回
本站所有资源均收集自互联网,没有提供影片资源存储, 也未参与录制、上传,若本站收录的资源无意侵犯了您的权益, 请联系邮箱:nsfhetuafkey#gmail.com(#[email protected])