[2023] [欧美] [动作] [x264-1080P] Imani Imani.2023.1080p.AMZN.WEBRip.DDP2.0.x264-KHEZU 7.56 GB

d2mp4 4天前



◎片  名 Imani
◎年  代 2023
◎产  地 美国
◎类  别 动作
◎语  言 英语
◎上映日期 
◎IMDb评分  9.1/10 from 18 users
◎IMDb链接  https://www.imdb.com/title/tt21967864/
◎豆瓣评分 /10 from 0 users
◎豆瓣链接 https://movie.douban.com/subject/36138317/
◎片  长 
◎导  演 
◎编  剧 
◎主  演 布列塔尼·S·霍尔 Brittany S. Hall
       史蒂芬·比肖普 Stephen Bishop
       德米特里厄斯·西普 Demetrius Shipp Jr.

◎简  介

  Faith has it all as a mother and wife, but a year after what she believes was a car accident, Faith discovers that she is an Army special ops lieutenant with classified information.



Video
ID           : 1
Format       : AVC
Format/Info      : Advanced Video Codec
Format profile       : [email protected]
Format settings      : CABAC / 4 Ref Frames
Format settings, CABAC       : Yes
Format settings, Reference frames    : 4 frames
Codec ID         : V_MPEG4/ISO/AVC
Duration         : 2 h 0 min
Bit rate mode        : Constant
Bit rate         : 8 765 kb/s
Nominal bit rate     : 10 000 kb/s
Width        : 1 920 pixels
Height       : 1 080 pixels
Display aspect ratio     : 16:9
Frame rate mode      : Constant
Frame rate       : 23.976 (24000/1001) FPS
Color space      : YUV
Chroma subsampling       : 4:2:0
Bit depth        : 8 bits
Scan type        : Progressive
Bits/(Pixel*Frame)       : 0.176
Stream size      : 7.37 GiB (97%)
Language         : English (US)
Default          : Yes
Forced       : No
Color range      : Limited
Color primaries      : BT.709
Transfer characteristics     : BT.709
Matrix coefficients      : BT.709

Audio
ID           : 2
Format       : E-AC-3
Format/Info      : Enhanced AC-3
Commercial name      : Dolby Digital Plus
Codec ID         : A_EAC3
Duration         : 2 h 0 min
Bit rate mode        : Constant
Bit rate         : 224 kb/s
Channel(s)       : 2 channels
Channel layout       : L R
Sampling rate        : 48.0 kHz
Frame rate       : 31.250 FPS (1536 SPF)
Compression mode     : Lossy
Stream size      : 193 MiB (2%)
Language         : English
Service kind         : Complete Main
Default          : Yes
Forced       : No

Text #1
ID           : 3
Format       : UTF-8
Codec ID         : S_TEXT/UTF8
Codec ID/Info        : UTF-8 Plain Text
Duration         : 1 h 55 min
Bit rate         : 46 b/s
Frame rate       : 0.211 FPS
Count of elements        : 1470
Stream size      : 39.3 KiB (0%)
Language         : English (US)
Default          : No
Forced       : No

Text #2
ID           : 4
Format       : UTF-8
Codec ID         : S_TEXT/UTF8
Codec ID/Info        : UTF-8 Plain Text
Duration         : 1 h 56 min
Bit rate         : 49 b/s
Frame rate       : 0.236 FPS
Count of elements        : 1658
Stream size      : 42.0 KiB (0%)
Title        : SDH
Language         : English (US)
Default          : No
Forced       : No



第二MP4_D2mp4_Imani Imani.2023.1080p.AMZN.WEBRip.DDP2.0.x264-KHEZU 7.56 GB
第二MP4_D2mp4_Imani Imani.2023.1080p.AMZN.WEBRip.DDP2.0.x264-KHEZU 7.56 GB
第二MP4_D2mp4_Imani Imani.2023.1080p.AMZN.WEBRip.DDP2.0.x264-KHEZU 7.56 GB

磁力链接

magnet:?xt=urn:btih:c0816fa4c29e88f64b08c0fa8d80da6656fdf98a

上传的附件:
最新回复 (0)
返回
本站所有资源均收集自互联网,没有提供影片资源存储, 也未参与录制、上传,若本站收录的资源无意侵犯了您的权益, 请联系邮箱:nsfhetuafkey#gmail.com(#[email protected])