[2018] [欧美] [战争] [x264-1080P] 铁十字勋章:诺曼底之路 Iron.Cross.The.Road.To.Normandy.2022.1080p.AMZN.WEBRip.DD5.1.x264-NOGRP 7.41 GB

d2mp4 4天前

第二MP4_D2mp4_铁十字勋章:诺曼底之路 Iron.Cross.The.Road.To.Normandy.2022.1080p.AMZN.WEBRip.DD5.1.x264-NOGRP 7.41 GB

◎片  名 铁十字勋章:诺曼底之路 Iron Cross: The Road to Normandy
◎年  代 2018
◎产  地 美国
◎类  别 剧情 / 战争
◎语  言 英语
◎上映日期 2018-11-15(美国)
◎IMDb评分  3.8/10 from 121 users
◎IMDb链接  https://www.imdb.com/title/tt7203574/
◎豆瓣评分 /10 from 0 users
◎豆瓣链接 https://movie.douban.com/subject/30262248/
◎片  长 1小时54分31秒
◎导  演 提诺·斯特劳克曼 Tino Struckmann
◎编  剧 
◎主  演 戴米恩·查帕 Damian Chapa
       奥利弗·古鲁内尔 Olivier Gruner
       杰克·迪米奇 Jack Dimich
       提诺·斯特劳克曼 Tino Struckmann
       Kim Sønderholm Kim Sønderholm
       托马斯·拉夫特 Thomas Raft
       托莉·伦敦 Tori London
       Caspar von Winterfeldt Caspar von Winterfeldt

◎简  介

  从一名德军军官的视角看待盟军对诺曼底的入侵,影片从他在斯大林格勒的经历开始回忆起



Video
ID           : 1
Format       : AVC
Format/Info      : Advanced Video Codec
Format profile       : [email protected]
Format settings      : CABAC / 4 Ref Frames
Format settings, CABAC       : Yes
Format settings, Reference frames    : 4 frames
Codec ID         : V_MPEG4/ISO/AVC
Duration         : 1 h 54 min
Bit rate mode        : Constant
Bit rate         : 8 873 kb/s
Nominal bit rate     : 10 000 kb/s
Width        : 1 920 pixels
Height       : 1 080 pixels
Display aspect ratio     : 16:9
Frame rate mode      : Constant
Frame rate       : 24.000 FPS
Color space      : YUV
Chroma subsampling       : 4:2:0
Bit depth        : 8 bits
Scan type        : Progressive
Bits/(Pixel*Frame)       : 0.178
Stream size      : 7.10 GiB (96%)
Language         : English
Default          : Yes
Forced       : No
Color range      : Limited
Color primaries      : BT.709
Transfer characteristics     : BT.709
Matrix coefficients      : BT.709

Audio
ID           : 2
Format       : AC-3
Format/Info      : Audio Coding 3
Commercial name      : Dolby Digital
Codec ID         : A_AC3
Duration         : 1 h 54 min
Bit rate mode        : Constant
Bit rate         : 384 kb/s
Channel(s)       : 6 channels
Channel layout       : L R C LFE Ls Rs
Sampling rate        : 48.0 kHz
Frame rate       : 31.250 FPS (1536 SPF)
Compression mode     : Lossy
Stream size      : 315 MiB (4%)
Language         : English
Service kind         : Complete Main
Default          : Yes
Forced       : No

Text
ID           : 3
Format       : UTF-8
Codec ID         : S_TEXT/UTF8
Codec ID/Info        : UTF-8 Plain Text
Duration         : 1 h 50 min
Bit rate         : 37 b/s
Frame rate       : 0.177 FPS
Count of elements        : 1174
Stream size      : 30.1 KiB (0%)
Language         : English (US)
Default          : Yes
Forced       : No

Menu
00:00:00.000         : en:Chapter 01
00:13:55.126         : en:Chapter 02
00:27:41.911         : en:Chapter 03
00:37:31.793         : en:Chapter 04
00:49:32.180         : en:Chapter 05
01:00:52.527         : en:Chapter 06
01:15:02.919         : en:Chapter 07
01:27:14.943         : en:Chapter 08
01:44:12.252         : en:Chapter 09
01:50:48.023         : en:Chapter 10



第二MP4_D2mp4_铁十字勋章:诺曼底之路 Iron.Cross.The.Road.To.Normandy.2022.1080p.AMZN.WEBRip.DD5.1.x264-NOGRP 7.41 GB
第二MP4_D2mp4_铁十字勋章:诺曼底之路 Iron.Cross.The.Road.To.Normandy.2022.1080p.AMZN.WEBRip.DD5.1.x264-NOGRP 7.41 GB
第二MP4_D2mp4_铁十字勋章:诺曼底之路 Iron.Cross.The.Road.To.Normandy.2022.1080p.AMZN.WEBRip.DD5.1.x264-NOGRP 7.41 GB

磁力链接

magnet:?xt=urn:btih:a19d8fc5b45a23f95fc4446c8b850ca30cd18988

上传的附件:
最新回复 (0)
返回
本站所有资源均收集自互联网,没有提供影片资源存储, 也未参与录制、上传,若本站收录的资源无意侵犯了您的权益, 请联系邮箱:nsfhetuafkey#gmail.com(#[email protected])