[2020] [欧美] [其他] [x264-1080P] 势如洪水 The.Flood.2020.1080p.AMZN.WEBRip.DDP5.1.x264-THR 6.37 GB

d2mp4 4天前

第二MP4_D2mp4_势如洪水 The.Flood.2020.1080p.AMZN.WEBRip.DDP5.1.x264-THR 6.37 GB

◎片  名 势如洪水 The Flood
◎年  代 2020
◎产  地 澳大利亚
◎类  别 剧情 / 西部
◎语  言 英语
◎上映日期 2020-11-17(塔林黑夜电影节)
◎IMDb评分  4.5/10 from 383 users
◎IMDb链接  https://www.imdb.com/title/tt11609692/
◎豆瓣评分 /10 from 0 users
◎豆瓣链接 https://movie.douban.com/subject/35225525/
◎片  长 117分钟
◎导  演 
◎编  剧 
◎主  演 迪恩·基尔伍德 Dean Kyrwood

◎简  介

  When Jarah loses her husband, her child, her land and her innocence she embarks on a brutal journey of of retribution and revenge that transforms into redemption and reconciliation.



Video
ID           : 1
Format       : AVC
Format/Info      : Advanced Video Codec
Format profile       : [email protected]
Format settings      : CABAC / 4 Ref Frames
Format settings, CABAC       : Yes
Format settings, Reference frames    : 4 frames
Codec ID         : V_MPEG4/ISO/AVC
Duration         : 1 h 57 min
Bit rate mode        : Constant
Bit rate         : 7 134 kb/s
Nominal bit rate     : 10 000 kb/s
Width        : 1 920 pixels
Height       : 816 pixels
Display aspect ratio     : 2.35:1
Frame rate mode      : Constant
Frame rate       : 24.000 FPS
Color space      : YUV
Chroma subsampling       : 4:2:0
Bit depth        : 8 bits
Scan type        : Progressive
Bits/(Pixel*Frame)       : 0.190
Stream size      : 5.85 GiB (92%)
Default          : Yes
Forced       : No
Color range      : Limited
Color primaries      : BT.709
Transfer characteristics     : BT.709
Matrix coefficients      : BT.709

Audio
ID           : 2
Format       : E-AC-3
Format/Info      : Enhanced AC-3
Commercial name      : Dolby Digital Plus
Codec ID         : A_EAC3
Duration         : 1 h 57 min
Bit rate mode        : Constant
Bit rate         : 640 kb/s
Channel(s)       : 6 channels
Channel layout       : L R C LFE Ls Rs
Sampling rate        : 48.0 kHz
Frame rate       : 31.250 FPS (1536 SPF)
Compression mode     : Lossy
Stream size      : 537 MiB (8%)
Language         : English
Service kind         : Complete Main
Default          : Yes
Forced       : No

Text
ID           : 3
Format       : UTF-8
Codec ID         : S_TEXT/UTF8
Codec ID/Info        : UTF-8 Plain Text
Duration         : 1 h 56 min
Bit rate         : 24 b/s
Frame rate       : 0.142 FPS
Count of elements        : 994
Stream size      : 21.0 KiB (0%)
Language         : English (US)
Default          : No
Forced       : No



第二MP4_D2mp4_势如洪水 The.Flood.2020.1080p.AMZN.WEBRip.DDP5.1.x264-THR 6.37 GB
第二MP4_D2mp4_势如洪水 The.Flood.2020.1080p.AMZN.WEBRip.DDP5.1.x264-THR 6.37 GB
第二MP4_D2mp4_势如洪水 The.Flood.2020.1080p.AMZN.WEBRip.DDP5.1.x264-THR 6.37 GB

磁力链接

magnet:?xt=urn:btih:14e2882a5a1969d7fc19166c65ac7e1116dc56e2

上传的附件:
最新回复 (0)
返回
本站所有资源均收集自互联网,没有提供影片资源存储, 也未参与录制、上传,若本站收录的资源无意侵犯了您的权益, 请联系邮箱:nsfhetuafkey#gmail.com(#[email protected])