[2021] [欧美] [恐怖] [x264-1080P] 最后的旅店 The.Last.Inn.2021.1080p.AMZN.WEBRip.DDP5.1.x264-THR 4.96 GB

d2mp4 4天前

第二MP4_D2mp4_最后的旅店 The.Last.Inn.2021.1080p.AMZN.WEBRip.DDP5.1.x264-THR 4.96 GB

◎片  名 最后的旅店 The Last Inn
◎年  代 2021
◎产  地 美国
◎类  别 恐怖
◎语  言 英语
◎上映日期 
◎IMDb评分  2.5/10 from 174 users
◎IMDb链接  https://www.imdb.com/title/tt8880868/
◎豆瓣评分 /10 from 0 users
◎豆瓣链接 https://movie.douban.com/subject/35599392/
◎片  长 
◎导  演 关尔 David Kuan
◎编  剧 Bill Maelor-Jones Bill Maelor-Jones
◎主  演 Emily Hall Emily Hall
       Theresa Croft Theresa Croft
       Lauren Peterson Lauren Peterson

◎简  介

  Laura makes an unplanned stay at a peculiar hotel and is trapped in a life-changing game.



Video
ID           : 1
Format       : AVC
Format/Info      : Advanced Video Codec
Format profile       : [email protected]
Format settings      : CABAC / 4 Ref Frames
Format settings, CABAC       : Yes
Format settings, Reference frames    : 4 frames
Codec ID         : V_MPEG4/ISO/AVC
Duration         : 1 h 38 min
Bit rate mode        : Constant
Bit rate         : 6 591 kb/s
Nominal bit rate     : 10 000 kb/s
Width        : 1 920 pixels
Height       : 816 pixels
Display aspect ratio     : 2.35:1
Frame rate mode      : Constant
Frame rate       : 24.000 FPS
Color space      : YUV
Chroma subsampling       : 4:2:0
Bit depth        : 8 bits
Scan type        : Progressive
Bits/(Pixel*Frame)       : 0.175
Stream size      : 4.52 GiB (91%)
Default          : Yes
Forced       : No
Color range      : Limited
Color primaries      : BT.709
Transfer characteristics     : BT.709
Matrix coefficients      : BT.709

Audio
ID           : 2
Format       : E-AC-3
Format/Info      : Enhanced AC-3
Commercial name      : Dolby Digital Plus
Codec ID         : A_EAC3
Duration         : 1 h 38 min
Bit rate mode        : Constant
Bit rate         : 640 kb/s
Channel(s)       : 6 channels
Channel layout       : L R C LFE Ls Rs
Sampling rate        : 48.0 kHz
Frame rate       : 31.250 FPS (1536 SPF)
Compression mode     : Lossy
Stream size      : 449 MiB (9%)
Language         : English
Service kind         : Complete Main
Default          : Yes
Forced       : No

Text
ID           : 3
Format       : UTF-8
Codec ID         : S_TEXT/UTF8
Codec ID/Info        : UTF-8 Plain Text
Duration         : 1 h 34 min
Bit rate         : 43 b/s
Frame rate       : 0.191 FPS
Count of elements        : 1085
Stream size      : 29.9 KiB (0%)
Language         : English (US)
Default          : No
Forced       : No



第二MP4_D2mp4_最后的旅店 The.Last.Inn.2021.1080p.AMZN.WEBRip.DDP5.1.x264-THR 4.96 GB
第二MP4_D2mp4_最后的旅店 The.Last.Inn.2021.1080p.AMZN.WEBRip.DDP5.1.x264-THR 4.96 GB
第二MP4_D2mp4_最后的旅店 The.Last.Inn.2021.1080p.AMZN.WEBRip.DDP5.1.x264-THR 4.96 GB

磁力链接

magnet:?xt=urn:btih:932f7424fadcb6656a4bdd65861516954223e241

上传的附件:
最新回复 (0)
返回
本站所有资源均收集自互联网,没有提供影片资源存储, 也未参与录制、上传,若本站收录的资源无意侵犯了您的权益, 请联系邮箱:nsfhetuafkey#gmail.com(#[email protected])