[2017] [欧美] [恐怖] [x264-1080P] 打车惊魂 Ryde.2017.1080p.BluRay.x264-GETiT 11.04 GB

d2mp4 4天前

第二MP4_D2mp4_打车惊魂 Ryde.2017.1080p.BluRay.x264-GETiT 11.04 GB

◎片  名 打车惊魂 Ryde / 忧步(台)
◎年  代 2017
◎产  地 美国
◎类  别 恐怖
◎语  言 英语
◎上映日期 2017-09-15(美国)
◎IMDb评分  5.7/10 from 7060 users
◎IMDb链接  https://www.imdb.com/title/tt5339418/
◎豆瓣评分 4.2/10 from 628 users
◎豆瓣链接 https://movie.douban.com/subject/27115524/
◎片  长 85分钟
◎导  演 Brian Frank Visciglia Brian Frank Visciglia
◎编  剧 Brian Frank Visciglia Brian Frank Visciglia
◎主  演 大卫·瓦克斯 David Wachs

◎简  介

  Technology brings us closer. Or perhaps it brings strangers, a little too close. But how much can you really trust someone? With a new ride share service, you never know who will be getting in a car with. Or if you'll ever get out.



Video
ID           : 1
Format       : AVC
Format/Info      : Advanced Video Codec
Format profile       : [email protected]
Format settings      : CABAC / 5 Ref Frames
Format settings, CABAC       : Yes
Format settings, Reference frames    : 5 frames
Codec ID         : V_MPEG4/ISO/AVC
Duration         : 1 h 25 min
Bit rate         : 16.7 Mb/s
Width        : 1 920 pixels
Height       : 816 pixels
Display aspect ratio     : 2.35:1
Frame rate mode      : Constant
Frame rate       : 23.976 (24000/1001) FPS
Color space      : YUV
Chroma subsampling       : 4:2:0
Bit depth        : 8 bits
Scan type        : Progressive
Bits/(Pixel*Frame)       : 0.443
Stream size      : 9.92 GiB (90%)
Writing library      : x264 core 164 r3103 941cae6
Encoding settings        : cabac=1 / ref=5 / deblock=1:-3:-3 / analyse=0x3:0x133 / me=umh / subme=9 / psy=1 / psy_rd=1.00:0.00 / mixed_ref=1 / me_range=16 / chroma_me=1 / trellis=2 / 8x8dct=1 / cqm=0 / deadzone=21,11 / fast_pskip=1 / chroma_qp_offset=-2 / threads=12 / lookahead_threads=1 / sliced_threads=0 / nr=0 / decimate=1 / interlaced=0 / bluray_compat=0 / constrained_intra=0 / bframes=3 / b_pyramid=2 / b_adapt=2 / b_bias=0 / direct=3 / weightb=1 / open_gop=0 / weightp=2 / keyint=250 / keyint_min=23 / scenecut=40 / intra_refresh=0 / rc_lookahead=60 / rc=crf / mbtree=1 / crf=17.0 / qcomp=0.60 / qpmin=0 / qpmax=69 / qpstep=4 / ip_ratio=1.40 / aq=3:0.80
Language         : English
Default          : Yes
Forced       : No

Audio
ID           : 2
Format       : DTS XLL
Format/Info      : Digital Theater Systems
Commercial name      : DTS-HD Master Audio
Codec ID         : A_DTS
Duration         : 1 h 25 min
Bit rate mode        : Variable
Bit rate         : 1 881 kb/s
Channel(s)       : 6 channels
Channel layout       : C L R Ls Rs LFE
Sampling rate        : 48.0 kHz
Frame rate       : 93.750 FPS (512 SPF)
Bit depth        : 16 bits
Compression mode     : Lossless
Stream size      : 1.12 GiB (10%)
Title        : dtshd
Language         : English
Default          : Yes
Forced       : No

Text
ID           : 3
Format       : PGS
Muxing mode      : zlib
Codec ID         : S_HDMV/PGS
Codec ID/Info        : Picture based subtitle format used on BDs/HD-DVDs
Duration         : 1 h 18 min
Bit rate         : 8 476 b/s
Count of elements        : 1313
Stream size      : 4.75 MiB (0%)
Title        : sub
Language         : German
Default          : No
Forced       : No

Menu
00:00:00.000         : en:00:00:00.000
00:08:48.653         : en:00:08:48.653
00:17:31.259         : en:00:17:31.259
00:26:17.534         : en:00:26:17.534
00:34:44.833         : en:00:34:44.833
00:43:40.993         : en:00:43:40.993
00:52:36.278         : en:00:52:36.278
01:01:24.222         : en:01:01:24.222
01:09:57.485         : en:01:09:57.485
01:18:36.545         : en:01:18:36.545



Screenshots:
第二MP4_D2mp4_打车惊魂 Ryde.2017.1080p.BluRay.x264-GETiT 11.04 GB
Ryde.2017.1080p.BluRay.x264-GETiT

Release Type .......: x264 CRF17
Video Bitrate ......: 1920x816  @ 16,7 MB/s
Source..............: 30,0 MB/s
Audio Bitrate ......: English DTS XLL 5.1 @ 1.881 kbps (DTS-HD)
Subtitles .........:  de

Release Date .......: 25.01.2023
Size ...............: 11.309 MB
Notes ..............: Not Yet!

https://www.imdb.com/title/tt5339418/

UNiVERSUM (Big Thanks!) - iTWASNTME - GUACAMOLE

... and not to forgot our nice NFO GUY!

THANKS!

art division nFo-13                 nZ

磁力链接

magnet:?xt=urn:btih:e7d8561e2b03f2e3aa7e2b31d94f91f0b449951e

上传的附件:
最新回复 (0)
返回
本站所有资源均收集自互联网,没有提供影片资源存储, 也未参与录制、上传,若本站收录的资源无意侵犯了您的权益, 请联系邮箱:nsfhetuafkey#gmail.com(#[email protected])