[2022] [新马] [动作] [x264-1080P] 空军大电影:只要活着 Air.Force.The.Movie.Danger.Close.2022.MALAY.1080p.NF.WEBRip.DDP5.1.x264-SMURF 4.05 GB

d2mp4 4天前

第二MP4_D2mp4_空军大电影:只要活着 Air.Force.The.Movie.Danger.Close.2022.MALAY.1080p.NF.WEBRip.DDP5.1.x264-SMURF 4.05 GB

◎片  名 空军大电影:只要活着 Air Force the Movie: Selagi Bernyawa
◎年  代 2022
◎产  地 马来西亚
◎类  别 动作
◎语  言 马来西亚语
◎上映日期 2022-08-25(马来西亚)
◎IMDb评分  5.9/10 from 269 users
◎IMDb链接  https://www.imdb.com/title/tt14571464/
◎豆瓣评分 /10 from 0 users
◎豆瓣链接 https://movie.douban.com/subject/36065672/
◎片  长 104分钟
◎导  演 徐添发 Frank See
◎编  剧 
◎主  演 苏慧敏 Carmen Soo
       陈泽耀 Jack Tan

◎简  介

  The movie follows the story of a PASKAU team led by Captain Adib and his mentor, Major Adnan, tasked with protecting humanitarians serving in war torn country, Namburi. On their return home, their plane gets unexpectedly shot down by local militants. Nine of the passengers managed to make their jump before the plane crashes. Back in Malaysia, upon discovery of the news, the air force makes preparation for rescue. Adib's brother in-law, Zafran, a grounded SUKHOI pilot, fights for the opportunity to save them. The air force deploys help and the survivors make their final run to salvation.



Video
ID           : 1
Format       : AVC
Format/Info      : Advanced Video Codec
Format profile       : [email protected]
Format settings      : CABAC / 3 Ref Frames
Format settings, CABAC       : Yes
Format settings, Reference frames    : 3 frames
Codec ID         : V_MPEG4/ISO/AVC
Duration         : 1 h 43 min
Bit rate mode        : Variable
Bit rate         : 5 000 kb/s
Maximum bit rate     : 7 500 kb/s
Width        : 1 920 pixels
Height       : 1 080 pixels
Display aspect ratio     : 16:9
Frame rate mode      : Constant
Frame rate       : 24.000 FPS
Color space      : YUV
Chroma subsampling       : 4:2:0
Bit depth        : 8 bits
Scan type        : Progressive
Bits/(Pixel*Frame)       : 0.100
Stream size      : 3.59 GiB (89%)
Writing library      : x264 core 148 r2727 7d026e8
Encoding settings        : cabac=1 / ref=3 / deblock=1:0:0 / analyse=0x1:0x111 / me=umh / subme=10 / psy=1 / psy_rd=1.00:0.00 / mixed_ref=1 / me_range=24 / chroma_me=1 / trellis=2 / 8x8dct=0 / cqm=0 / deadzone=21,11 / fast_pskip=1 / chroma_qp_offset=-2 / threads=6 / lookahead_threads=1 / sliced_threads=0 / nr=0 / decimate=1 / interlaced=0 / bluray_compat=0 / stitchable=1 / constrained_intra=0 / bframes=2 / b_pyramid=0 / b_adapt=2 / b_bias=0 / direct=3 / weightb=1 / open_gop=0 / weightp=2 / keyint=240 / keyint_min=121 / scenecut=0 / intra_refresh=0 / rc_lookahead=48 / rc=2pass / mbtree=1 / bitrate=5000 / ratetol=1.0 / qcomp=0.50 / qpmin=6 / qpmax=51 / qpstep=4 / cplxblur=20.0 / qblur=0.5 / vbv_maxrate=7500 / vbv_bufsize=10000 / nal_hrd=vbr / filler=0 / ip_ratio=1.40 / aq=1:1.00
Language         : Malay
Default          : Yes
Forced       : No

Audio
ID           : 2
Format       : E-AC-3
Format/Info      : Enhanced AC-3
Commercial name      : Dolby Digital Plus
Codec ID         : A_EAC3
Duration         : 1 h 43 min
Bit rate mode        : Constant
Bit rate         : 640 kb/s
Channel(s)       : 6 channels
Channel layout       : L R C LFE Ls Rs
Sampling rate        : 48.0 kHz
Frame rate       : 31.250 FPS (1536 SPF)
Compression mode     : Lossy
Stream size      : 473 MiB (11%)
Language         : Malay
Service kind         : Complete Main
Default          : Yes
Forced       : No

Text #1
ID           : 3
Format       : UTF-8
Codec ID         : S_TEXT/UTF8
Codec ID/Info        : UTF-8 Plain Text
Duration         : 1 h 29 min
Bit rate         : 13 b/s
Frame rate       : 0.078 FPS
Count of elements        : 417
Stream size      : 8.82 KiB (0%)
Title        : Forced
Language         : Malay
Default          : Yes
Forced       : Yes

Text #2
ID           : 4
Format       : UTF-8
Codec ID         : S_TEXT/UTF8
Codec ID/Info        : UTF-8 Plain Text
Duration         : 1 h 36 min
Bit rate         : 33 b/s
Frame rate       : 0.185 FPS
Count of elements        : 1072
Stream size      : 24.1 KiB (0%)
Language         : Malay
Default          : No
Forced       : No

Text #3
ID           : 5
Format       : UTF-8
Codec ID         : S_TEXT/UTF8
Codec ID/Info        : UTF-8 Plain Text
Duration         : 1 h 38 min
Bit rate         : 22 b/s
Frame rate       : 0.115 FPS
Count of elements        : 676
Stream size      : 16.4 KiB (0%)
Language         : English
Default          : No
Forced       : No

Text #4
ID           : 6
Format       : UTF-8
Codec ID         : S_TEXT/UTF8
Codec ID/Info        : UTF-8 Plain Text
Duration         : 1 h 38 min
Bit rate         : 31 b/s
Frame rate       : 0.191 FPS
Count of elements        : 1125
Stream size      : 22.9 KiB (0%)
Title        : Simplified
Language         : Chinese (Simplied)
Default          : No
Forced       : No

Menu
01:40:40.000         : en:End Credits



第二MP4_D2mp4_空军大电影:只要活着 Air.Force.The.Movie.Danger.Close.2022.MALAY.1080p.NF.WEBRip.DDP5.1.x264-SMURF 4.05 GB
第二MP4_D2mp4_空军大电影:只要活着 Air.Force.The.Movie.Danger.Close.2022.MALAY.1080p.NF.WEBRip.DDP5.1.x264-SMURF 4.05 GB
第二MP4_D2mp4_空军大电影:只要活着 Air.Force.The.Movie.Danger.Close.2022.MALAY.1080p.NF.WEBRip.DDP5.1.x264-SMURF 4.05 GB

磁力链接

magnet:?xt=urn:btih:3695d07970873f23b5a72fcf39a51cc9e74375dd

上传的附件:
最新回复 (0)
返回
本站所有资源均收集自互联网,没有提供影片资源存储, 也未参与录制、上传,若本站收录的资源无意侵犯了您的权益, 请联系邮箱:nsfhetuafkey#gmail.com(#[email protected])