[2022] [欧美] [惊悚] [x264-720P] 梅根 M3gan.2022.720p.WEB.H264-SLOT 2.57 GB

d2mp4 3天前

第二MP4_D2mp4_梅根 M3gan.2022.720p.WEB.H264-SLOT 2.57 GB

◎片  名 梅根 M3GAN / 室友梅根(台) / 人工杀姬(港) / 窒友梅根 / 玩偶梅根 / M3gan
◎年  代 2022
◎产  地 美国
◎类  别 科幻 / 惊悚 / 恐怖
◎语  言 英语
◎上映日期 2022-12-28(法国) / 2023-01-06(美国)
◎IMDb评分  6.6/10 from 27960 users
◎IMDb链接  https://www.imdb.com/title/tt8760708/
◎豆瓣评分 6.2/10 from 5315 users
◎豆瓣链接 https://movie.douban.com/subject/30277290/
◎片  长 102分钟
◎导  演 热拉尔·约翰斯通 Gerard Johnstone
◎编  剧 阿克拉·库珀 Akela Cooper
       温子仁 James Wan
◎主  演 艾莉森·威廉姆斯 Allison Williams
       维奥莱特·麦格劳 Violet McGraw
       钱信伊 Ronny Chieng
       珍娜·戴维斯 Jenna Davis
       布莱恩·乔丹·阿尔瓦雷斯 Brian Jordan Alvarez
       珍·凡·伊普斯 Jen Van Epps
       洛丽·邓盖 Lori Dungey
       斯蒂芬·加诺·蒙顿 Stephane Garneau-Monten
       阿洛·格林 Arlo Green
       艾米·唐纳德 Amie Donald
       迈克尔·萨克特 Michael Saccente

◎简  介

  “她不只是个玩具,而是这个家的一份子。”                                    
      梅根(M3GAN)是一个具备高度人工智能、栩栩如生的玩具人偶,被设计成小孩子最好的玩伴和令家长最安心的盟友。这款玩具人偶由一名玩具公司杰出的机器人专家洁玛(艾莉森·威廉姆斯 饰)精心设计,梅根能够借由聆听以及观察学习人类行为,并且成为她照顾的小孩的朋友、老师、玩伴和保护者。                                    
      当洁玛突然成为她失去双亲的八岁侄女凯蒂(维奥莱特·麦格劳 饰)的监护人之后,洁玛并不确定也没有准备好能够成为一个好的家长,加上她的工作压力非常巨大,于是就决定将她设计的人工智能玩具人偶梅根和凯蒂配对,试图解决照顾凯蒂这个孤儿和纾解她工作压力这两个问题,但是她的这个决定却造成无法想像的严重后果。



Video
ID           : 1
Format       : AVC
Format/Info      : Advanced Video Codec
Format profile       : [email protected]
Format settings      : CABAC / 5 Ref Frames
Format settings, CABAC       : Yes
Format settings, Reference frames    : 5 frames
Codec ID         : V_MPEG4/ISO/AVC
Duration         : 1 h 41 min
Bit rate         : 2 833 kb/s
Width        : 1 484 pixels
Height       : 620 pixels
Display aspect ratio     : 2.40:1
Frame rate mode      : Constant
Frame rate       : 23.976 (24000/1001) FPS
Color space      : YUV
Chroma subsampling       : 4:2:0
Bit depth        : 8 bits
Scan type        : Progressive
Bits/(Pixel*Frame)       : 0.128
Stream size      : 2.02 GiB (79%)
Default          : Yes
Forced       : No
Color range      : Limited
Color primaries      : BT.709
Transfer characteristics     : BT.709
Matrix coefficients      : BT.709

Audio
ID           : 2
Format       : E-AC-3 JOC
Format/Info      : Enhanced AC-3 with Joint Object Coding
Commercial name      : Dolby Digital Plus with Dolby Atmos
Codec ID         : A_EAC3
Duration         : 1 h 41 min
Bit rate mode        : Constant
Bit rate         : 768 kb/s
Channel(s)       : 6 channels
Channel layout       : L R C LFE Ls Rs
Sampling rate        : 48.0 kHz
Frame rate       : 31.250 FPS (1536 SPF)
Compression mode     : Lossy
Stream size      : 560 MiB (21%)
Language         : English
Service kind         : Complete Main
Default          : Yes
Forced       : No
Complexity index     : 16
Number of dynamic objects    : 15
Bed channel count        : 1 channel
Bed channel configuration    : LFE

Text #1
ID           : 3
Format       : UTF-8
Codec ID         : S_TEXT/UTF8
Codec ID/Info        : UTF-8 Plain Text
Duration         : 1 h 32 min
Bit rate         : 80 b/s
Count of elements        : 1490
Stream size      : 54.6 KiB (0%)
Title        : English CC
Language         : English
Default          : No
Forced       : No

Text #2
ID           : 4
Format       : UTF-8
Codec ID         : S_TEXT/UTF8
Codec ID/Info        : UTF-8 Plain Text
Duration         : 1 h 40 min
Bit rate         : 61 b/s
Count of elements        : 1234
Stream size      : 45.3 KiB (0%)
Title        : Spanish Latin American
Language         : Spanish
Default          : No
Forced       : No

Text #3
ID           : 5
Format       : UTF-8
Codec ID         : S_TEXT/UTF8
Codec ID/Info        : UTF-8 Plain Text
Duration         : 1 h 40 min
Bit rate         : 63 b/s
Count of elements        : 1370
Stream size      : 47.2 KiB (0%)
Title        : French Canadian
Language         : French
Default          : No
Forced       : No

Menu
00:00:00.000         : en:Chapter 01
00:09:20.935         : en:Chapter 02
00:14:05.845         : en:Chapter 03
00:19:44.392         : en:Chapter 04
00:28:16.905         : en:Chapter 05
00:32:55.975         : en:Chapter 06
00:39:19.359         : en:Chapter 07
00:43:36.658         : en:Chapter 08
00:48:42.505         : en:Chapter 09
00:56:58.335         : en:Chapter 10
01:01:03.872         : en:Chapter 11
01:07:14.409         : en:Chapter 12
01:14:46.778         : en:Chapter 13
01:21:37.856         : en:Chapter 14
01:29:43.925         : en:Chapter 15
01:33:13.301         : en:Chapter 16



Screenshots:
第二MP4_D2mp4_梅根 M3gan.2022.720p.WEB.H264-SLOT 2.57 GB
M3gan.2022.720p.WEB.H264-SLOT
Date  ... : 01/25/2023
Runtime . : 01:41:54
Video ... : 1484 x 620  - 23.976 FPS - 2 833 kb/s
Audio ... : English E-AC-3 5.1
Subs .... : en / es / fr /
iMDB .... : https://www.imdb.com/title/tt8760708/

磁力链接

magnet:?xt=urn:btih:64807e219fcc34ba09665d7adaf043af98cf43a5

上传的附件:
最新回复 (0)
返回
本站所有资源均收集自互联网,没有提供影片资源存储, 也未参与录制、上传,若本站收录的资源无意侵犯了您的权益, 请联系邮箱:nsfhetuafkey#gmail.com(#[email protected])